<?xml version="1.0" standalone="no"?>
<!DOCTYPE svg PUBLIC "-//W3C//DTD SVG 1.1//EN" "http://www.w3.org/Graphics/SVG/1.1/DTD/svg11.dtd" >
<svg xmlns="http://www.w3.org/2000/svg" xmlns:xlink="http://www.w3.org/1999/xlink" version="1.1">
<metadata></metadata>
<defs>
<font id="ralewaybold_italic" horiz-adv-x="1320" >
<font-face units-per-em="2048" ascent="1638" descent="-410" />
<missing-glyph horiz-adv-x="483" />
<glyph unicode="&#xfb00;" horiz-adv-x="1271" d="M51 0l170 807h-131l45 209h131l6 26q20 84 59.5 157t95.5 127t127 85t153 31q66 0 126 -16.5t117 -43.5q59 61 134 97.5t167 36.5q74 0 129.5 -20.5t106.5 -43.5l-98 -207q-25 14 -57 25.5t-72 11.5q-78 0 -124 -57.5t-63 -132.5l-16 -76h262l-43 -209h-262l-172 -807 h-275l172 807h-243l-170 -807h-275zM541 1016h241q8 39 21.5 84t30.5 80q-27 16 -60 22t-61 6q-72 0 -113 -44t-53 -113z" />
<glyph unicode="&#xfb01;" horiz-adv-x="1130" d="M51 0l170 807h-131l45 209h131l15 65q18 88 63 168t112.5 138.5t153.5 93.5t185 35q111 0 196.5 -38t159.5 -96l-152 -204q-43 47 -105.5 75.5t-129.5 28.5q-86 0 -138.5 -57.5t-68.5 -132.5l-16 -76h553l-217 -1016h-275l170 807h-276l-170 -807h-275z" />
<glyph unicode="&#xfb02;" horiz-adv-x="1296" d="M51 0l170 807h-131l45 209h131l21 90q43 199 180 304.5t340 105.5q190 0 279.5 -80t89.5 -213q0 -51 -13 -109l-162 -764q-2 -10 -3 -18t-1 -19q0 -33 15.5 -58.5t54.5 -25.5q16 0 37.5 4.5t40 9.5t31.5 9l14 4l-14 -221q-2 -2 -27 -10.5t-61.5 -17.5t-83 -16t-91.5 -7 q-111 0 -166 52t-55 130q0 31 8 70l177 823q12 55 12 96q0 53 -25.5 90t-97.5 37q-92 0 -143.5 -63.5t-73.5 -165.5l-8 -37h166l-43 -209h-168l-170 -807h-275z" />
<glyph unicode="&#xfb03;" horiz-adv-x="1646" d="M51 0l170 807h-131l45 209h131l6 26q18 82 57.5 155t95.5 127t128 86t154 32q66 0 126 -16.5t117 -43.5q66 61 157 97.5t202 36.5q100 0 190 -37t168 -97l-151 -204q-41 45 -103.5 74.5t-126.5 29.5q-90 0 -143 -57.5t-70 -132.5l-16 -76h553l-215 -1016h-277l172 807 h-276l-172 -807h-275l172 807h-243l-170 -807h-275zM541 1016h241q8 39 21.5 84t30.5 80q-27 16 -60 22t-61 6q-72 0 -112 -46t-54 -111z" />
<glyph unicode="&#xfb04;" horiz-adv-x="1814" d="M51 0l170 807h-131l45 209h131l6 26q18 84 59.5 157t97.5 127t128 85t154 31q68 0 126 -16.5t113 -43.5q143 133 375 134q190 0 279.5 -80t89.5 -213q0 -51 -13 -109l-163 -764q-2 -10 -3.5 -18t-1.5 -19q0 -33 15.5 -58.5t56.5 -25.5q16 0 36.5 4.5t39 9.5t32 9t15.5 4 l-14 -221q-2 -2 -27 -10.5t-61.5 -17.5t-82.5 -16t-91 -7q-111 0 -167.5 52t-56.5 130q0 18 3 34.5t10 41.5l176 825q10 51 10 86q0 55 -27.5 92t-101.5 37q-45 0 -79 -18.5t-60.5 -51t-44 -74.5t-27.5 -89l-8 -33h166l-45 -209h-166l-170 -807h-275l170 807h-243l-170 -807 h-275zM541 1016h243q10 41 21.5 87t25.5 79q-27 16 -56.5 21t-55.5 5q-68 0 -114 -47t-58 -108z" />
<glyph horiz-adv-x="0" />
<glyph unicode="&#xd;" horiz-adv-x="0" />
<glyph horiz-adv-x="0" />
<glyph horiz-adv-x="0" />
<glyph unicode=" "  horiz-adv-x="483" />
<glyph unicode="&#x09;" horiz-adv-x="483" />
<glyph unicode="&#xa0;" horiz-adv-x="483" />
<glyph unicode="!" horiz-adv-x="593" d="M29 0l65 309h275l-66 -309h-274zM145 547l195 921h274l-194 -921h-275z" />
<glyph unicode="&#x22;" horiz-adv-x="792" d="M205 1022l96 459h234l-97 -459h-233zM522 1022l99 459h233l-98 -459h-234z" />
<glyph unicode="#" horiz-adv-x="1417" d="M25 383l43 205h268l119 280h-236l43 193h283l174 393h219l-174 -393h217l174 393h221l-176 -393h240l-43 -193h-285l-121 -280h254l-43 -205h-303l-170 -383h-219l170 383h-217l-170 -383h-221l170 383h-217zM557 588h215l121 280h-217z" />
<glyph unicode="$" horiz-adv-x="1251" d="M-25 172l177 244q8 -16 39.5 -43t79.5 -52.5t109.5 -48t129.5 -30.5l74 350l-72 22q-78 25 -136.5 53.5t-98 65.5t-60 84t-20.5 111q0 119 45 213t120.5 162.5t176 108.5t211.5 50l45 207h120l-45 -207q127 -10 226.5 -56t167.5 -103l-172 -230q-6 14 -33 34.5t-66 42 t-89 39t-105 23.5l-76 -352q66 -18 138.5 -42.5t133 -64.5t100.5 -100.5t40 -152.5q0 -133 -49.5 -227.5t-129 -157t-184 -94t-215.5 -35.5l-47 -226h-121l47 228q-135 10 -254 58t-207 126zM506 1022q0 -51 36 -82t105 -55l70 329q-104 -8 -157.5 -60t-53.5 -132zM592 238 q115 4 171 51t56 125q0 55 -43 89t-114 62z" />
<glyph unicode="%" horiz-adv-x="1556" d="M80 96l690 674l653 700l101 -110l-674 -664l-670 -710zM182 1112q0 74 34 139.5t89 115.5t127 79t148 29q59 0 107 -19.5t83 -54.5t54.5 -82t19.5 -102q0 -74 -33 -139.5t-88 -116t-126.5 -79t-147.5 -28.5q-59 0 -108.5 19.5t-84.5 54.5t-54.5 82t-19.5 102zM377 1126 q0 -57 26.5 -96t73.5 -39q31 0 62.5 17.5t56.5 47t40 67.5t15 79q0 57 -27.5 96t-72.5 39q-31 0 -62.5 -17t-56 -47t-40 -68t-15.5 -79zM760 238q0 74 32.5 139t88 115.5t127 79t147.5 28.5q59 0 108.5 -19.5t84 -54t53 -82t18.5 -102.5q0 -74 -32.5 -139.5t-88 -115.5 t-127 -78.5t-147.5 -28.5q-59 0 -107.5 19t-83 54t-54 82t-19.5 103zM950 252q0 -57 29 -96t74 -39q33 0 63.5 17.5t55 46t40 67.5t15.5 80q0 57 -28 96t-73 39q-31 0 -62.5 -17.5t-57 -47t-41 -67.5t-15.5 -79z" />
<glyph unicode="&#x26;" horiz-adv-x="1427" d="M31 336q0 82 27.5 148.5t74.5 122t108.5 101.5t131.5 89q-53 82 -76 144.5t-23 127.5q0 86 37 161t100.5 128t145.5 84t172 31q123 0 219 -66t133 -195l-190 -106q-23 78 -75 121t-111 43q-35 0 -66 -12.5t-55.5 -33t-39 -49t-14.5 -61.5q0 -41 29 -92t98 -152l240 -348 q37 72 64.5 154t44.5 176h368l-31 -197h-165q-31 -88 -72 -164.5t-88 -142.5l244 -348h-351l-94 137q-98 -78 -204.5 -117.5t-211.5 -39.5q-90 0 -158.5 28.5t-115.5 76.5t-71.5 112.5t-24.5 138.5zM297 367q0 -86 51 -131.5t125 -45.5q121 0 242 99l-226 332 q-98 -59 -145 -118t-47 -136z" />
<glyph unicode="'" horiz-adv-x="475" d="M205 1022l96 459h234l-97 -459h-233z" />
<glyph unicode="(" horiz-adv-x="622" d="M72 539q0 135 37.5 260t104.5 248.5t156 247.5t191 255l191 -88q-80 -104 -157 -218t-135.5 -230.5t-94 -233t-35.5 -225.5q0 -127 28.5 -275.5t75.5 -287.5l-223 -101q-31 72 -56.5 152t-44 164t-28.5 168t-10 164z" />
<glyph unicode=")" horiz-adv-x="622" d="M-76 -8q88 115 163 223.5t130 215t86 215t31 222.5q0 86 -11.5 175.5t-26.5 170t-33.5 146t-33.5 102.5l230 88q57 -162 95 -334.5t38 -332.5q0 -135 -40 -264.5t-107.5 -252t-155.5 -241.5t-187 -234z" />
<glyph unicode="*" horiz-adv-x="690" d="M240 1255l61 119l127 -63l25 157h145l-43 -157l154 63l10 -119l-146 -45l62 -145l-121 -70l-55 154l-123 -154l-90 70l121 145z" />
<glyph unicode="+" horiz-adv-x="874" d="M121 616v222h213v231h246v-231h211v-222h-211v-231h-246v231h-213z" />
<glyph unicode="," horiz-adv-x="471" d="M-33 -236l109 244h-86l61 287h236l-62 -287l-133 -244h-125z" />
<glyph unicode="-" horiz-adv-x="823" d="M78 438l53 248h592l-53 -248h-592z" />
<glyph unicode="." horiz-adv-x="458" d="M-12 0l63 295h225l-63 -295h-225z" />
<glyph unicode="/" horiz-adv-x="1417" d="M-55 0l1278 1454h303l-1278 -1454h-303z" />
<glyph unicode="0" horiz-adv-x="1384" d="M90 569q0 152 61.5 308.5t168 284.5t248 210t300.5 82q123 0 212 -54t145.5 -139t83 -191.5t26.5 -211.5q0 -152 -61.5 -307.5t-167 -282.5t-247.5 -207.5t-302 -80.5q-123 0 -211 53t-145.5 137t-84 189.5t-26.5 209.5zM377 559q0 -66 13 -125t41 -105t72 -73t105 -27 q100 0 182 62.5t139.5 155t88.5 200t31 197.5q0 68 -13.5 132t-42 115.5t-71.5 82t-105 30.5q-104 0 -185 -66.5t-138.5 -165t-87 -210t-29.5 -203.5z" />
<glyph unicode="1" horiz-adv-x="970" d="M0 0l53 248h271l200 946q-20 -25 -63 -54.5t-94.5 -57t-103.5 -46t-91 -18.5l53 254q51 0 113.5 29.5t116 65.5t89.5 66.5t38 34.5h280l-258 -1220h246l-51 -248h-799z" />
<glyph unicode="2" horiz-adv-x="1202" d="M-43 0q31 141 70 246.5t97 185.5t138 139.5t193 110.5q78 37 153.5 69.5t136 75.5t97.5 100.5t37 141.5q0 72 -40 114t-118 42q-53 0 -104.5 -16.5t-98.5 -42t-89 -56.5t-73 -59l-133 180q35 33 92.5 75t133 78.5t167 62.5t193.5 26q193 0 290 -97.5t97 -253.5 q0 -115 -31.5 -196.5t-90 -145t-139.5 -113t-177 -94.5q-154 -74 -244 -146.5t-113 -178.5h619l-51 -248h-1012z" />
<glyph unicode="3" horiz-adv-x="1148" d="M4 266l184 180q2 -31 14.5 -68.5t42 -69.5t77 -53.5t116.5 -21.5q57 0 110.5 15.5t93.5 45.5t64.5 69.5t24.5 89.5q0 94 -89 138t-263 44h-64l47 229h66q84 0 157.5 13.5t128 41t85 69.5t30.5 97q0 78 -49 112t-114 34q-55 0 -104.5 -15.5t-91.5 -40t-73.5 -54 t-50.5 -56.5l-135 199q45 49 105.5 88t128 65.5t138 41t138.5 14.5q92 0 168 -26t130 -71t82.5 -108.5t28.5 -137.5q0 -135 -90 -233t-243 -133q104 -20 161.5 -103t57.5 -200q0 -119 -56.5 -209t-145.5 -149.5t-200 -90t-217 -30.5q-170 0 -271 73.5t-122 210.5z" />
<glyph unicode="4" horiz-adv-x="1153" d="M-6 330l53 245l844 879h188l-186 -876h172l-51 -248h-172l-70 -330h-274l69 330h-573zM324 578h325l101 462z" />
<glyph unicode="5" horiz-adv-x="1120" d="M-10 233l192 164q37 -80 105.5 -127t154.5 -47q59 0 111.5 22.5t92.5 62.5t62.5 93.5t22.5 116.5q0 84 -45 135.5t-123 51.5q-61 0 -120.5 -31t-102.5 -84h-238q18 41 46 112.5t61 156.5t68.5 175t68.5 173t58.5 147.5t39.5 99.5h684l-55 -250h-483l-121 -325 q29 29 74 45t108 16q84 0 151.5 -27.5t116 -77t75 -119t26.5 -151.5q0 -127 -51 -233.5t-137.5 -185t-200 -122.5t-240.5 -44q-152 0 -257 67.5t-144 185.5z" />
<glyph unicode="6" horiz-adv-x="1212" d="M88 459q0 207 54.5 390t151.5 319.5t233.5 216t299.5 79.5q129 0 227.5 -59t151.5 -170l-192 -172q-31 78 -94.5 121t-147.5 43q-125 0 -223 -108.5t-146 -307.5q57 74 139.5 117t176.5 43q88 0 160.5 -31t124 -84t79 -126t27.5 -157q0 -121 -52 -228t-139.5 -188 t-200 -129t-235.5 -48q-190 0 -292.5 128t-102.5 351zM342 436q0 -94 53.5 -159.5t139.5 -65.5q55 0 110 26.5t99 71.5t71 103.5t27 122.5q0 92 -53.5 154.5t-139.5 62.5q-57 0 -112.5 -26t-98.5 -69t-69.5 -100t-26.5 -121z" />
<glyph unicode="7" horiz-adv-x="1118" d="M-12 0l819 1204h-617l56 250h1046l-995 -1454h-309z" />
<glyph unicode="8" horiz-adv-x="1193" d="M43 362q0 80 27.5 145.5t70.5 118t95.5 90.5t99.5 62q-53 29 -85 89.5t-32 131.5q0 106 53.5 191.5t135 144t179 89t185.5 30.5q72 0 141.5 -21.5t125 -64.5t89 -105.5t33.5 -144.5q0 -59 -20.5 -111.5t-54 -96.5t-76.5 -77.5t-88 -54.5q59 -37 103 -110.5t44 -171.5 q0 -113 -51 -207t-137 -163t-196 -106.5t-226 -37.5q-90 0 -167 27.5t-132.5 78.5t-86 121t-30.5 153zM330 408q0 -80 54 -129.5t130 -49.5q49 0 99.5 19.5t89 54.5t63.5 82t25 102q0 84 -54.5 130.5t-132.5 46.5q-51 0 -100 -19.5t-88 -53.5t-62.5 -81t-23.5 -102z M498 1012q0 -70 47 -106t104 -36q37 0 77 13.5t72.5 40t54 63.5t21.5 86q0 63 -44 100t-109 37q-43 0 -83 -14t-70.5 -41t-50 -63.5t-19.5 -79.5z" />
<glyph unicode="9" horiz-adv-x="1212" d="M51 211l195 172q29 -78 92 -121t147 -43q127 0 224.5 108.5t144.5 307.5q-57 -74 -139 -117t-176 -43q-88 0 -161 31t-124 84t-79 125.5t-28 156.5q0 119 52.5 226.5t139.5 189.5t199.5 129t235.5 47q190 0 292.5 -127t102.5 -352q0 -207 -54 -389t-151.5 -319.5 t-232.5 -217t-299 -79.5q-131 0 -228.5 60t-152.5 171zM418 911q0 -92 53 -154.5t139 -62.5q57 0 112.5 25.5t98.5 68.5t70 100.5t27 121.5q0 45 -14.5 86t-40 71.5t-60.5 49t-78 18.5q-57 0 -112.5 -26.5t-98.5 -71.5t-69.5 -103.5t-26.5 -122.5z" />
<glyph unicode=":" horiz-adv-x="499" d="M6 0l64 295h223l-64 -295h-223zM168 766l63 295h224l-62 -295h-225z" />
<glyph unicode=";" horiz-adv-x="505" d="M-14 -236l106 244h-86l62 287h237l-61 -287l-135 -244h-123zM170 766l61 295h226l-64 -295h-223z" />
<glyph unicode="&#x3c;" horiz-adv-x="1126" d="M59 457v133l865 522v-291l-465 -291l465 -278v-307z" />
<glyph unicode="=" horiz-adv-x="993" d="M164 295v178h641v-178h-641zM164 657v179h641v-179h-641z" />
<glyph unicode="&#x3e;" horiz-adv-x="1126" d="M164 -55v307l465 278l-465 291v291l864 -522v-133z" />
<glyph unicode="?" horiz-adv-x="964" d="M111 0l59 283h225l-59 -283h-225zM197 1208q78 127 203.5 196t261.5 69q63 0 123.5 -18.5t106.5 -57.5t73.5 -99.5t27.5 -144.5q0 -90 -21.5 -156.5t-60.5 -116t-90 -86t-110 -69.5q-45 -25 -90.5 -47.5t-83 -50t-66.5 -63.5t-39 -87h-225q20 100 66 182t159 138 q61 31 117.5 60.5t100.5 65t71 81t27 104.5q0 68 -42 104.5t-102 36.5q-41 0 -78 -15t-69.5 -39t-59 -53.5t-47.5 -56.5z" />
<glyph unicode="@" horiz-adv-x="1665" d="M41 324q0 197 78 363.5t205 288.5t291.5 190.5t336.5 68.5q139 0 251 -46t189.5 -126t118.5 -188.5t41 -233.5q0 -98 -26.5 -216t-78.5 -219.5t-131 -170t-183 -68.5q-66 0 -109 32t-43 103v18.5t2 16.5q-76 -70 -158 -106.5t-168 -36.5q-76 0 -136 28.5t-103 79 t-65.5 120t-22.5 149.5q0 113 42 217t112.5 184t162.5 128t191 48q104 0 169.5 -50t88.5 -128l28 152h140l-138 -686q-4 -16 -6 -35t-2 -33q0 -78 66 -78q55 0 101 51.5t80 128t52.5 167.5t18.5 171q0 106 -34 200.5t-99.5 164t-160.5 110.5t-218 41q-152 0 -290 -61.5 t-243.5 -168t-169 -249.5t-63.5 -309q0 -117 32.5 -213t94 -166t150.5 -107.5t202 -37.5q80 0 153.5 19t159.5 58l13 -106q-86 -41 -174.5 -61.5t-174.5 -20.5q-129 0 -234.5 45t-181 126t-116.5 195.5t-41 256.5zM496 395q0 -113 59.5 -188.5t161.5 -75.5q92 0 164.5 59.5 t109.5 149.5l41 260q-20 92 -74.5 142.5t-128.5 50.5q-59 0 -118.5 -31t-107.5 -85t-77.5 -127t-29.5 -155z" />
<glyph unicode="A" d="M-109 0l830 1454h252l211 -1454h-291l-45 362h-469l-197 -362h-291zM467 561h375l-64 572z" />
<glyph unicode="B" horiz-adv-x="1343" d="M20 0l310 1454h745q61 0 107.5 -25.5t77 -66.5t46 -94.5t15.5 -110.5q0 -63 -19.5 -124.5t-56.5 -117t-89 -99.5t-116 -71q92 -31 141.5 -105.5t49.5 -182.5q0 -111 -45 -196t-121 -143.5t-174 -88t-203 -29.5h-668zM352 240h387q39 0 78 18t68.5 50t48 74t18.5 89 q0 63 -31.5 107.5t-86.5 44.5h-402zM481 846h346q37 0 73 16.5t64.5 46t46 71.5t17.5 93q0 63 -30.5 101t-82.5 38h-356z" />
<glyph unicode="C" horiz-adv-x="1347" d="M76 606q0 100 28.5 202.5t83 198t131 178.5t172 144.5t206 97t233.5 35.5q193 0 314.5 -88t158.5 -229l-248 -150q-12 61 -41 103.5t-68.5 67t-86 35.5t-91.5 11q-115 0 -209 -55t-159.5 -141t-101.5 -190.5t-36 -202.5q0 -78 20.5 -147.5t59.5 -123t95.5 -84 t130.5 -30.5q45 0 97 12t102.5 38.5t96.5 68.5t83 102l202 -133q-49 -82 -123.5 -144.5t-161.5 -105.5t-180.5 -65.5t-177.5 -22.5q-127 0 -225 52t-166 138t-103.5 197.5t-35.5 230.5z" />
<glyph unicode="D" horiz-adv-x="1417" d="M20 0l310 1454h506q141 0 244.5 -44t171 -120t100 -178t32.5 -221q0 -193 -64.5 -355.5t-180 -281.5t-272 -186.5t-341.5 -67.5h-506zM354 248h224q117 0 212 49t162.5 132t104.5 191.5t37 229.5q0 160 -79 258t-233 98h-225z" />
<glyph unicode="E" horiz-adv-x="1183" d="M20 0l310 1454h942l-51 -248h-664l-74 -350h572l-49 -229h-572l-80 -379h680l-53 -248h-961z" />
<glyph unicode="F" horiz-adv-x="1138" d="M20 0l310 1454h930l-54 -248h-649l-78 -375h537l-49 -229h-537l-129 -602h-281z" />
<glyph unicode="G" horiz-adv-x="1427" d="M76 588q0 176 71.5 334.5t190.5 279.5t272.5 191.5t317.5 70.5q195 0 316.5 -86t162.5 -231l-244 -156q-29 109 -107.5 166t-189.5 57q-102 0 -192 -50t-160 -133t-109.5 -190.5t-39.5 -222.5q0 -80 21.5 -149.5t61 -120.5t97 -79.5t129.5 -28.5q197 0 395 198l23 103 h-277l45 207h510l-160 -748h-233l35 164q-104 -90 -205.5 -132t-210.5 -42q-117 0 -212 46t-163.5 126t-106.5 189.5t-38 236.5z" />
<glyph unicode="H" horiz-adv-x="1470" d="M20 0l310 1454h280l-125 -588h607l125 588h280l-309 -1454h-281l131 621h-606l-131 -621h-281z" />
<glyph unicode="I" horiz-adv-x="583" d="M20 0l310 1452h280l-309 -1452h-281z" />
<glyph unicode="J" horiz-adv-x="980" d="M-88 68l111 229q20 -20 79.5 -45t143.5 -25q80 0 133 30t90 91.5t63.5 152.5t53.5 214l157 737h283l-158 -737q-35 -166 -80 -302.5t-119.5 -232.5t-189 -149.5t-286.5 -53.5q-174 0 -281 91z" />
<glyph unicode="K" horiz-adv-x="1316" d="M20 0l310 1452h280l-147 -690l706 692h316l-666 -645l389 -809h-319l-285 629l-211 -195l-92 -434h-281z" />
<glyph unicode="L" horiz-adv-x="1148" d="M20 0l310 1454h280l-256 -1206h695l-52 -248h-977z" />
<glyph unicode="M" horiz-adv-x="1699" d="M20 0l310 1454h303l219 -827l573 827h301l-309 -1454h-280l204 963l-493 -717h-154l-188 717l-205 -963h-281z" />
<glyph unicode="N" horiz-adv-x="1501" d="M20 0l310 1454h219l495 -954l203 952h281l-309 -1452h-228l-493 932l-197 -932h-281z" />
<glyph unicode="O" horiz-adv-x="1492" d="M76 594q0 166 70.5 322.5t189.5 278.5t273.5 195.5t322.5 73.5q129 0 228.5 -51t166 -135t101 -194.5t34.5 -227.5q0 -164 -69.5 -320.5t-187.5 -277.5t-271.5 -194.5t-321.5 -73.5q-129 0 -229 50t-169 134t-103.5 192.5t-34.5 227.5zM362 616q0 -76 18.5 -143 t57.5 -119.5t95.5 -83t134.5 -30.5q113 0 206 55t160.5 141t104.5 191.5t37 208.5q0 76 -18.5 144.5t-56.5 119.5t-95.5 81.5t-133.5 30.5q-113 0 -207 -54t-161.5 -140t-104.5 -191.5t-37 -210.5z" />
<glyph unicode="P" horiz-adv-x="1230" d="M20 0l310 1454h585q82 0 147.5 -34t111 -90t69 -129t23.5 -148q0 -102 -43 -203.5t-118 -181.5t-174.5 -130.5t-209.5 -50.5h-318l-102 -487h-281zM457 735h297q43 0 83 22.5t71.5 62.5t50 93.5t18.5 116.5q0 84 -39 130t-94 46h-287z" />
<glyph unicode="Q" horiz-adv-x="1490" d="M74 594q0 166 70.5 322.5t189.5 278.5t273.5 195.5t322.5 73.5q129 0 228 -51t167 -135t102.5 -194.5t34.5 -227.5q0 -180 -82 -348t-219 -291l144 -217h-269l-57 86q-86 -47 -178 -71.5t-191 -24.5q-129 0 -229 50t-168 134t-103.5 192.5t-35.5 227.5zM362 616 q0 -76 18.5 -143t57.5 -119.5t95.5 -83t134.5 -30.5q49 0 95 11t89 32l-166 256h266l74 -115q72 88 111 196.5t39 215.5q0 76 -19.5 144.5t-57.5 120.5t-94.5 82.5t-132.5 30.5q-113 0 -207 -54t-161.5 -140t-104.5 -192.5t-37 -211.5z" />
<glyph unicode="R" horiz-adv-x="1314" d="M20 0l310 1454h614q82 0 147.5 -34t110.5 -90t68.5 -129t23.5 -148q0 -80 -26.5 -157t-72.5 -144.5t-108.5 -120.5t-136.5 -84l197 -547h-320l-172 487h-252l-102 -487h-281zM457 735h325q41 0 81 23.5t71 63.5t50.5 92.5t19.5 109.5q0 78 -38 130t-94 52h-315z" />
<glyph unicode="S" horiz-adv-x="1212" d="M-43 172l176 244q10 -18 48 -48t94.5 -59.5t129 -50t152.5 -20.5q123 0 183.5 48t60.5 128q0 39 -23.5 67.5t-64.5 51t-97.5 42t-123.5 39.5q-154 47 -234 118t-80 196q0 127 51.5 226t136.5 169t196.5 105.5t232.5 35.5q145 0 258.5 -48t191.5 -113l-174 -230 q-8 14 -39 39t-77 48.5t-103 40t-119 16.5q-123 0 -184.5 -53.5t-61.5 -141.5q0 -35 17.5 -60.5t52.5 -45t84 -36t115 -34.5q82 -23 148.5 -51.5t113.5 -68.5t72.5 -95.5t25.5 -130.5q0 -137 -53 -235.5t-139 -161t-197.5 -91t-228.5 -28.5q-154 0 -296.5 49t-244.5 139z " />
<glyph unicode="T" horiz-adv-x="1212" d="M156 1206l51 248h1153l-53 -248h-435l-256 -1206h-282l258 1206h-436z" />
<glyph unicode="U" horiz-adv-x="1474" d="M125 481q0 113 27 232l157 741h281l-158 -741q-10 -47 -15 -93.5t-5 -89.5q0 -61 12 -114.5t42 -92t76 -61t113 -22.5q92 0 164 41t124 106.5t87 150.5t53 175l158 741h281l-158 -741q-31 -150 -94.5 -281t-157.5 -229.5t-221 -155.5t-287 -57q-131 0 -222 38 t-148.5 104.5t-83 155.5t-25.5 193z" />
<glyph unicode="V" horiz-adv-x="1323" d="M176 1454h297l127 -1100l590 1100h297l-844 -1454h-237z" />
<glyph unicode="W" horiz-adv-x="2052" d="M168 1454h305l139 -1130l262 464l-90 662h260l50 -481l252 481h262l-375 -662l67 -464l619 1130h307l-868 -1454h-236l-104 610l-365 -610h-235z" />
<glyph unicode="X" horiz-adv-x="1267" d="M-119 0l625 717l-332 737h307l217 -541l447 541h305l-645 -737l319 -717h-305l-205 520l-426 -520h-307z" />
<glyph unicode="Y" horiz-adv-x="1267" d="M166 1454h307l180 -700l484 700h305l-703 -946l-106 -508h-281l109 512z" />
<glyph unicode="Z" horiz-adv-x="1222" d="M-72 0l45 213l975 993h-739l51 248h1067l-45 -213l-948 -993h741l-51 -248h-1096z" />
<glyph unicode="[" horiz-adv-x="618" d="M2 -82l340 1598h377l-45 -220h-125l-246 -1159h125l-47 -219h-379z" />
<glyph unicode="\" horiz-adv-x="1236" d="M219 1454h305l537 -1454h-303z" />
<glyph unicode="]" horiz-adv-x="618" d="M-59 -82l47 219h125l245 1159h-125l48 220h378l-337 -1598h-381z" />
<glyph unicode="^" horiz-adv-x="1206" d="M98 621l406 833h229l404 -833h-226l-293 602l-299 -602h-221z" />
<glyph unicode="_" horiz-adv-x="933" d="M-72 -248l52 248h710l-53 -248h-709z" />
<glyph unicode="`" horiz-adv-x="503" d="M123 1495h252l53 -244l-190 -37z" />
<glyph unicode="a" horiz-adv-x="1173" d="M-113 0l717 1145h203l227 -1145h-260l-49 268h-412l-161 -268h-265zM414 483h299l-72 361z" />
<glyph unicode="b" horiz-adv-x="1179" d="M8 0l242 1145h647q53 0 94 -20.5t68.5 -54.5t41 -78t13.5 -89q0 -49 -16.5 -96t-47 -89t-73.5 -76t-96 -54q80 -25 124 -84.5t44 -147.5q0 -90 -38 -156.5t-102.5 -110.5t-148.5 -66.5t-174 -22.5h-578zM299 209h330q68 0 121 46t53 114q0 47 -29 79.5t-76 32.5h-342z M397 676h297q63 0 112.5 39t49.5 116q0 47 -27.5 74t-70.5 27h-305z" />
<glyph unicode="c" horiz-adv-x="1167" d="M47 483q0 117 53.5 237t148.5 215t226 155.5t287 60.5q162 0 266.5 -68.5t136.5 -181.5l-217 -133q-10 47 -35.5 78t-58.5 49t-71 26.5t-74 8.5q-94 0 -169 -40t-128.5 -101.5t-82 -137.5t-28.5 -149q0 -59 17.5 -111.5t50 -92.5t81 -63.5t111.5 -23.5q76 0 163 38 t144 128l179 -121q-41 -63 -104.5 -113.5t-136.5 -84t-150.5 -51t-149.5 -17.5q-109 0 -195 42t-144 110.5t-89 157.5t-31 183z" />
<glyph unicode="d" horiz-adv-x="1255" d="M8 0l242 1145h444q125 0 218.5 -36t154.5 -97.5t91 -144.5t30 -177q0 -152 -56.5 -277.5t-154.5 -218t-232.5 -143.5t-291.5 -51h-445zM299 217h199q100 0 180 35t136 94.5t87 138t31 166.5q0 123 -72 200t-211 77h-198z" />
<glyph unicode="e" horiz-adv-x="1056" d="M8 0l242 1145h829l-45 -217h-583l-52 -244h504l-43 -203h-502l-59 -264h598l-45 -217h-844z" />
<glyph unicode="f" horiz-adv-x="1013" d="M8 0l242 1145h817l-47 -217h-569l-56 -266h473l-43 -203h-473l-98 -459h-246z" />
<glyph unicode="g" horiz-adv-x="1222" d="M49 479q0 135 58.5 257t156.5 215t225 147.5t267 54.5q160 0 263 -67.5t138 -182.5l-217 -139q-23 80 -88.5 124t-153.5 44q-82 0 -153.5 -36t-125.5 -96.5t-86 -139t-32 -164.5q0 -61 17.5 -112.5t51 -89.5t82 -59.5t107.5 -21.5q78 0 159 37t159 108l12 56h-240l39 180 h445l-127 -594h-205l24 119q-82 -66 -164.5 -96.5t-168.5 -30.5q-100 0 -181.5 40t-139.5 106.5t-90 154.5t-32 186z" />
<glyph unicode="h" horiz-adv-x="1302" d="M8 0l242 1145h248l-97 -451h531l96 451h248l-244 -1145h-248l103 475h-531l-102 -475h-246z" />
<glyph unicode="i" horiz-adv-x="524" d="M8 0l242 1145h248l-244 -1145h-246z" />
<glyph unicode="j" horiz-adv-x="876" d="M-86 51l100 203q18 -16 70.5 -33.5t124.5 -17.5q70 0 116 21.5t76.5 65.5t51 112.5t41.5 160.5l124 582h246l-123 -582q-29 -131 -65.5 -238.5t-100 -183t-162.5 -116.5t-249 -41q-158 0 -250 67z" />
<glyph unicode="k" horiz-adv-x="1173" d="M8 0l242 1145h248l-115 -535l623 535h258l-570 -510l357 -635h-263l-272 496l-188 -152l-74 -344h-246z" />
<glyph unicode="l" horiz-adv-x="952" d="M8 0l242 1145h248l-199 -928h549l-47 -217h-793z" />
<glyph unicode="m" horiz-adv-x="1501" d="M8 0l242 1145h268l215 -619l477 619h267l-244 -1145h-248l154 715l-412 -525h-133l-188 525l-152 -715h-246z" />
<glyph unicode="n" horiz-adv-x="1329" d="M8 0l242 1145h192l465 -705l150 705h246l-244 -1145h-199l-461 686l-145 -686h-246z" />
<glyph unicode="o" horiz-adv-x="1288" d="M47 475q0 129 58.5 251t157.5 216t228.5 151.5t270.5 57.5q111 0 196.5 -41t144 -108.5t89.5 -154.5t31 -181q0 -129 -58.5 -250t-157 -215.5t-227.5 -151.5t-270 -57q-111 0 -197 40t-145 107.5t-90 154.5t-31 181zM301 500q0 -57 16.5 -109.5t48 -92.5t79.5 -63.5 t114 -23.5q92 0 168 40t129 102.5t83 139t30 150.5q0 57 -16.5 109.5t-49.5 91.5t-81 62.5t-111 23.5q-92 0 -167 -39t-129.5 -100.5t-84 -138.5t-29.5 -152z" />
<glyph unicode="p" horiz-adv-x="1095" d="M8 0l242 1145h514q74 0 133 -27.5t99 -73t61.5 -104.5t21.5 -121q0 -82 -36.5 -161.5t-100 -142t-149.5 -101.5t-183 -39h-276l-80 -375h-246zM379 592h262q37 0 69.5 14.5t58.5 40t41 63.5t15 85q0 66 -35.5 99.5t-87.5 33.5h-251z" />
<glyph unicode="q" horiz-adv-x="1290" d="M45 475q0 129 59.5 251t157.5 217t227 152.5t271 57.5q111 0 196.5 -41t144 -108.5t89.5 -155.5t31 -182q0 -135 -63.5 -261t-170.5 -223l131 -182h-235l-54 74q-74 -39 -154.5 -60.5t-166.5 -21.5q-111 0 -197 40t-145.5 107.5t-90 154.5t-30.5 181zM299 500 q0 -57 16.5 -108.5t48 -91.5t80.5 -63.5t115 -23.5q82 0 150 31l-142 196h236l57 -80q51 61 80 136t29 149q0 57 -16.5 108.5t-49.5 91.5t-81 63.5t-111 23.5q-92 0 -168 -39t-130.5 -101.5t-84 -139.5t-29.5 -152z" />
<glyph unicode="r" horiz-adv-x="1177" d="M8 0l242 1145h538q74 0 133.5 -27.5t99.5 -73t61.5 -104.5t21.5 -121q0 -61 -21.5 -120.5t-60.5 -110.5t-92 -93t-117 -67l193 -428h-281l-172 375h-219l-80 -375h-246zM379 592h287q35 0 68.5 15.5t59 43t41 64.5t15.5 78q0 59 -35 97t-88 38h-276z" />
<glyph unicode="s" horiz-adv-x="1056" d="M-49 131l153 215q14 -20 47 -45t81.5 -45t108.5 -33.5t128 -13.5q92 0 141 30.5t49 88.5q0 29 -19 48t-54 34.5t-83 30t-106 32.5q-133 41 -199.5 98.5t-66.5 159.5q0 100 43 179t114.5 132.5t165 82t193.5 28.5q123 0 222.5 -39t164.5 -88l-149 -203q-12 14 -39 34 t-66 36t-87 28.5t-99 12.5q-98 0 -146.5 -34t-48.5 -93q0 -51 59.5 -75.5t170.5 -55.5q70 -20 127 -44t98 -55.5t62.5 -75.5t21.5 -106q0 -111 -45 -188.5t-118 -126.5t-167 -71.5t-192 -22.5q-131 0 -254 38.5t-211 106.5z" />
<glyph unicode="t" horiz-adv-x="1083" d="M102 928l45 217h1010l-45 -217h-379l-198 -928h-248l198 928h-383z" />
<glyph unicode="u" horiz-adv-x="1284" d="M90 391q0 82 19 168l122 586h248l-123 -586q-6 -31 -10 -60.5t-4 -58.5q0 -96 48 -162.5t167 -66.5q80 0 139.5 29.5t101.5 79t68.5 112t40.5 127.5l123 586h248l-123 -586q-25 -119 -77 -222.5t-132 -180t-189.5 -120.5t-246.5 -44q-115 0 -194.5 30.5t-130 84t-73 127 t-22.5 157.5z" />
<glyph unicode="v" horiz-adv-x="1169" d="M115 1145h262l147 -797l480 797h262l-713 -1145h-209z" />
<glyph unicode="w" horiz-adv-x="1818" d="M113 1145h268l166 -848l196 317l-92 527h230l53 -371l213 371h229l-317 -527l65 -317l525 848h270l-735 -1145h-207l-109 461l-301 -461h-209z" />
<glyph unicode="x" horiz-adv-x="1134" d="M-111 0l537 565l-307 580h270l205 -406l377 406h268l-551 -580l295 -565h-268l-195 389l-358 -389h-273z" />
<glyph unicode="y" horiz-adv-x="1120" d="M106 1145h269l174 -535l405 535h271l-596 -750l-86 -395h-246l84 397z" />
<glyph unicode="z" horiz-adv-x="1101" d="M-63 0l38 186l826 742h-647l47 217h936l-41 -187l-803 -741h651l-47 -217h-960z" />
<glyph unicode="{" horiz-adv-x="630" d="M51 -25q0 14 2 23l107 508q2 8 3 15t1 18q0 41 -21.5 69.5t-52.5 34.5l41 193q20 0 42 12t39 32.5t30.5 43t17.5 45.5l102 485q8 39 28 50.5t30 11.5h309l-47 -220h-107l-88 -417q-10 -41 -36.5 -77t-63.5 -65q18 -23 30.5 -49t12.5 -59q0 -10 -1 -17.5t-3 -15.5 l-92 -440h106l-47 -219h-309q-10 0 -21.5 8t-11.5 30z" />
<glyph unicode="|" horiz-adv-x="669" d="M229 -266v1853h234v-1853h-234z" />
<glyph unicode="}" horiz-adv-x="632" d="M-47 -63l45 219h108l93 440q10 41 36.5 77t61.5 64q-16 23 -28.5 49.5t-12.5 57.5q0 14 4 35l90 417h-108l47 220h307q10 0 22.5 -8.5t12.5 -34.5q0 -12 -2 -19l-105 -485q-2 -6 -2 -13.5v-13.5q0 -41 20.5 -73.5t55.5 -32.5l-43 -193q-41 -8 -79 -46t-50 -91l-107 -508 q-8 -37 -27.5 -49t-31.5 -12h-307z" />
<glyph unicode="~" horiz-adv-x="1118" d="M84 467q2 18 20.5 62t56.5 90.5t94 82t136 35.5q55 0 98 -17.5t82 -37.5t77 -37.5t83 -17.5q41 0 69.5 15t46 33.5t26 36t8.5 21.5h149q0 -10 -18.5 -53t-57.5 -90t-98 -85t-141 -38q-53 0 -97.5 16.5t-83 37t-76.5 36.5t-81 16q-41 0 -68.5 -16t-44 -35.5t-22.5 -36 t-6 -18.5h-152z" />
<glyph unicode="&#xa1;" horiz-adv-x="593" d="M27 -10l196 921h275l-197 -921h-274zM272 1149l66 309h274l-65 -309h-275z" />
<glyph unicode="&#xa2;" horiz-adv-x="1169" d="M55 434q0 113 41 221.5t118 198.5t186.5 152.5t246.5 83.5l49 231h123l-49 -231q135 -4 231.5 -74t133.5 -199l-285 -82q-14 53 -50 82t-81 33l-133 -631q49 10 103 42t81 79l250 -82q-43 -70 -106.5 -122t-131 -87t-133 -52t-114.5 -17l-50 -226h-123l50 228 q-84 6 -150.5 47t-113 103.5t-70 140t-23.5 161.5zM338 457q0 -78 34 -140.5t93 -85.5l129 607q-53 -12 -100.5 -50t-82 -91.5t-54 -116t-19.5 -123.5z" />
<glyph unicode="&#xa3;" horiz-adv-x="1075" d="M10 178q129 98 201 194.5t88 200.5h-193l44 207h137q-12 66 -26.5 128.5t-14.5 123.5q0 90 41 169t109.5 137.5t157.5 92t183 33.5q121 0 216.5 -57t146.5 -158l-178 -168q-33 72 -98.5 116t-135.5 44q-41 0 -77 -16.5t-63.5 -44t-44 -66.5t-16.5 -84q0 -57 16.5 -118.5 t31.5 -131.5h360l-45 -207h-311q-6 -43 -22.5 -83.5t-45.5 -84t-72 -90.5t-102 -102q45 14 82 19.5t70 5.5q70 0 130 -17.5t126 -17.5q35 0 69.5 8t81.5 25l23 -205q-53 -29 -118 -45.5t-120 -16.5q-45 0 -88 9.5t-86 20.5t-87 20.5t-91 9.5q-51 0 -123 -12.5t-137 -32.5z " />
<glyph unicode="&#xa4;" horiz-adv-x="1179" d="M133 332l141 141q-63 98 -63 217q0 125 61 217l-139 142l111 112l145 -147q45 29 98.5 45t118.5 16q63 0 116.5 -15.5t98.5 -43.5l142 145l112 -112l-139 -138q31 -47 48 -103t17 -118q0 -59 -17 -115.5t-50 -103.5l141 -139l-102 -103l-148 140q-45 -29 -99 -44.5 t-120 -15.5q-127 0 -223 62l-150 -142zM416 690q0 -92 54 -150.5t136 -58.5t136.5 59.5t54.5 151.5t-54.5 150.5t-136.5 58.5t-136 -59.5t-54 -151.5z" />
<glyph unicode="&#xa5;" horiz-adv-x="1404" d="M172 268l39 178h303l14 66l-41 133h-233l37 178h143l-201 631h306l180 -700l483 700h307l-471 -631h142l-37 -178h-236l-100 -137l-12 -62h305l-35 -178h-309l-56 -268h-280l55 268h-303z" />
<glyph unicode="&#xa6;" horiz-adv-x="655" d="M221 -266v807h234v-807h-234zM221 780v807h234v-807h-234z" />
<glyph unicode="&#xa7;" horiz-adv-x="1054" d="M-18 33l211 168q45 -66 97 -93.5t113 -27.5q35 0 71 11t63.5 32.5t45 52.5t17.5 70q0 27 -11 44t-28.5 26.5t-40 12.5t-45.5 5q-166 12 -251 91t-85 206q0 88 28 140t48 79q-16 23 -26.5 64.5t-10.5 95.5q0 90 42 173t112.5 145.5t162 99t187.5 36.5q86 0 147.5 -25.5 t104.5 -63.5t69.5 -82t43.5 -81l-232 -100q-16 53 -59 81t-109 28q-74 0 -131 -46.5t-57 -123.5q0 -57 38 -77t93 -22q63 -2 127.5 -17t116 -48t83 -86t31.5 -129q0 -39 -9 -75t-22.5 -66.5t-28 -54.5t-26.5 -36q33 -39 33 -129q0 -133 -54.5 -226t-136 -151.5t-175 -86 t-169.5 -27.5q-78 0 -140 22.5t-109.5 55t-79 69.5t-49.5 66zM401 633q0 -47 26 -68.5t61.5 -30t72.5 -11.5t62 -15q25 18 41 51t16 68q0 57 -42 80.5t-85 23.5q-31 0 -58.5 6t-39.5 13q-20 -16 -37 -48t-17 -69z" />
<glyph unicode="&#xa8;" horiz-adv-x="915" d="M150 1237l53 244h227l-53 -244h-227zM535 1237l51 244h225l-49 -244h-227z" />
<glyph unicode="&#xa9;" horiz-adv-x="1751" d="M125 727q0 158 58.5 293t160.5 233.5t242.5 154.5t306.5 56q168 0 311.5 -56t247.5 -154.5t162.5 -233.5t58.5 -293q0 -160 -58.5 -295t-162.5 -234.5t-247.5 -155.5t-311.5 -56q-166 0 -306.5 56t-242.5 155.5t-160.5 234.5t-58.5 295zM236 725q0 -135 50 -251t137 -202 t208 -135t262 -49t263 46t213 131t142.5 202t51.5 258q0 135 -50.5 251t-140.5 202t-213 135t-266 49q-141 0 -261 -49t-208 -135t-138 -202t-50 -251zM393 727q0 92 33 180t97.5 157t159.5 109.5t222 40.5q164 0 282 -70.5t173 -191.5l-266 -82q-33 63 -86.5 87t-102.5 24 q-55 0 -97 -20.5t-71.5 -55.5t-45 -81t-15.5 -97q0 -61 20.5 -109.5t53 -80t73.5 -49t84 -17.5q57 0 110.5 30.5t82.5 84.5l266 -80q-25 -53 -65.5 -101.5t-99 -85t-131.5 -59t-159 -22.5q-115 0 -210 37.5t-163.5 103t-106.5 155t-38 193.5z" />
<glyph unicode="&#xaa;" horiz-adv-x="870" d="M139 885q0 61 27 113.5t74 91t110.5 60t134.5 21.5q92 0 154 -32l8 39q2 12 3 22t1 21q0 100 -114 100q-57 0 -112.5 -20.5t-121.5 -61.5l-33 125q154 96 312 96q129 0 198.5 -55t69.5 -164q0 -23 -3 -44t-7 -44l-47 -213q-2 -8 -2 -22q0 -35 40 -37l-36 -174 q-25 -4 -47.5 -6.5t-38.5 -2.5q-111 0 -111 82q0 6 1 18.5t3 28.5q-59 -66 -130.5 -99.5t-143.5 -33.5q-86 0 -137.5 53.5t-51.5 137.5zM332 928q0 -37 23.5 -61.5t62.5 -24.5q27 0 56.5 9t55 24.5t45 35t23.5 39.5l16 80q-25 12 -56.5 18.5t-59.5 6.5q-70 0 -118 -36 t-48 -91z" />
<glyph unicode="&#xab;" horiz-adv-x="1288" d="M39 457l29 133l598 387l-48 -223l-346 -224l254 -211l-47 -225zM621 457l26 133l600 387l-47 -223l-346 -224l254 -211l-47 -225z" />
<glyph unicode="&#xac;" horiz-adv-x="1210" d="M109 573l51 246h960l-129 -602h-231l76 356h-727z" />
<glyph unicode="&#xad;" horiz-adv-x="1191" d="M78 438l53 248h959l-52 -248h-960z" />
<glyph unicode="&#xae;" horiz-adv-x="1751" d="M125 727q0 158 57.5 293t160.5 233.5t244.5 154.5t307.5 56t308.5 -56t246.5 -154.5t163.5 -233.5t59.5 -293q0 -160 -59.5 -295t-163.5 -234.5t-246.5 -155.5t-308.5 -56t-307.5 56t-244.5 155.5t-160.5 234.5t-57.5 295zM242 727q0 -135 48 -252t135 -204t208 -136 t264 -49q139 0 260 47t210 131t139 202t50 257q0 135 -49 252t-137 203t-209 135t-264 49t-264 -49t-208 -135t-135 -202t-48 -249zM563 279v901h402q61 0 114.5 -27t91 -70t59 -96t21.5 -108q0 -84 -46 -158t-120 -103l211 -339h-217l-190 303h-129v-303h-197zM760 750h188 q51 0 81 33.5t30 95.5q0 66 -35 97.5t-82 31.5h-182v-258z" />
<glyph unicode="&#xaf;" horiz-adv-x="821" d="M139 1294l37 170h586l-37 -170h-586z" />
<glyph unicode="&#xb0;" horiz-adv-x="569" d="M211 1225q0 49 19.5 95t53 83t81 58.5t100.5 21.5q76 0 120 -47t44 -119q0 -53 -20.5 -100.5t-54.5 -81t-81 -53t-98 -19.5q-76 0 -120 45t-44 117zM346 1260q0 -29 14 -46.5t43 -17.5q31 0 60 27.5t29 64.5q0 29 -16.5 45.5t-39.5 16.5q-35 0 -62.5 -28t-27.5 -62z" />
<glyph unicode="&#xb1;" horiz-adv-x="1046" d="M137 57v222h723v-222h-723zM137 662v219h240v260h246v-260h239v-219h-239v-261h-246v261h-240z" />
<glyph unicode="&#xb2;" horiz-adv-x="825" d="M102 797q18 84 44 146.5t66 109.5t96.5 82.5t133.5 66.5q55 20 108.5 41t96.5 44.5t69.5 55t26.5 76.5t-36.5 68.5t-104.5 23.5q-86 0 -152.5 -32.5t-109.5 -67.5l-78 119q20 20 57 44.5t87.5 46t114 36t136.5 14.5q135 0 205 -58.5t70 -158.5q0 -74 -25.5 -127 t-69.5 -91t-102.5 -64.5t-124.5 -47.5q-100 -33 -150 -76.5t-61 -91.5h406l-35 -159h-668z" />
<glyph unicode="&#xb3;" horiz-adv-x="802" d="M125 946l113 121q2 -16 15 -36.5t37.5 -39t63.5 -31t95 -12.5q39 0 77.5 8.5t69.5 22.5t49.5 35.5t18.5 50.5q0 53 -70 77.5t-197 24.5h-47l31 150h45q127 0 207 28.5t80 88.5q0 47 -45 66.5t-99 19.5q-76 0 -134 -28t-105 -75l-76 131q57 59 153.5 91t190.5 32 q135 0 214 -58.5t79 -150.5q0 -82 -62.5 -137t-166.5 -74q80 -12 121.5 -63t41.5 -123t-36.5 -124t-95 -87t-131 -52.5t-144.5 -17.5q-117 0 -187.5 42t-105.5 120z" />
<glyph unicode="&#xb4;" horiz-adv-x="501" d="M47 1251l156 244h254l-232 -278z" />
<glyph unicode="&#xb5;" horiz-adv-x="1298" d="M-82 -434l322 1507h274l-131 -612q-12 -59 -12 -105q0 -143 127 -143q70 0 147.5 48t142.5 147l142 665h274l-162 -758q-2 -10 -3 -18t-1 -16q0 -45 62 -48l-51 -233q-41 -6 -72 -10t-53 -4q-152 0 -152 116q0 10 2 35t12 64q-25 -37 -63.5 -76t-86.5 -72t-101.5 -53 t-102.5 -20q-68 0 -102.5 33.5t-38.5 86.5l-98 -534h-275z" />
<glyph unicode="&#xb6;" horiz-adv-x="1300" d="M127 811q0 145 47 264t135 203t213 130t281 46h586l-46 -205h-135l-301 -1413h-233l127 590h-94l-125 -590h-234l125 590q-164 2 -255 106.5t-91 278.5zM360 840q0 -96 44.5 -149.5t111.5 -59.5l133 618q-63 -4 -116.5 -38.5t-91.5 -90t-59.5 -128t-21.5 -152.5zM750 631 h94l133 618h-96z" />
<glyph unicode="&#xb7;" horiz-adv-x="458" d="M90 496l66 309h225l-66 -309h-225z" />
<glyph unicode="&#xb8;" horiz-adv-x="641" d="M-37 -360l76 100q20 -14 66.5 -26.5t99.5 -12.5q55 0 90 18.5t35 61.5q0 31 -24.5 43t-65.5 12t-88.5 -9t-71.5 -15l170 245l100 -32l-92 -111q14 4 30.5 6t33.5 2q59 0 99 -27.5t40 -87.5q0 -88 -74 -148t-223 -60q-66 0 -116 12t-85 29z" />
<glyph unicode="&#xb9;" horiz-adv-x="589" d="M135 799l35 162h152l112 534q-12 -14 -37.5 -31.5t-54.5 -34t-59.5 -27.5t-53.5 -11l35 161q31 0 67 17.5t66.5 39t52 41t21.5 21.5h166l-154 -710h138l-35 -162h-451z" />
<glyph unicode="&#xba;" horiz-adv-x="876" d="M160 999q0 88 33.5 171t94 147.5t143.5 103.5t183 39q74 0 128.5 -24.5t91 -65.5t55 -96t18.5 -119q0 -88 -33.5 -171t-93 -147.5t-143.5 -103.5t-184 -39q-74 0 -128.5 24.5t-91 65.5t-55 97.5t-18.5 117.5zM365 1026q0 -72 33.5 -116t90.5 -44q41 0 79 20.5t68 56.5 t48 84t18 101q0 70 -33.5 114t-90.5 44q-41 0 -79 -20.5t-68 -56t-48 -83t-18 -100.5z" />
<glyph unicode="&#xbb;" horiz-adv-x="1288" d="M6 94l47 225l344 211l-252 224l48 223l434 -387l-29 -133zM588 94l45 225l346 211l-254 224l49 223l434 -387l-28 -133z" />
<glyph unicode="&#xbc;" horiz-adv-x="1714" d="M113 627l34 159h154l113 535q-14 -14 -40 -31.5t-54.5 -34t-59.5 -27.5t-53 -11l35 163q31 0 66.5 17.5t67.5 39t53.5 40t21.5 20.5h163l-151 -711h137l-35 -159h-452zM197 96l690 674l653 700l100 -110l-673 -664l-672 -710zM844 190l33 158l589 516h111l-111 -514h121 l-35 -160h-118l-41 -190h-160l39 190h-428zM1034 350h279l65 314z" />
<glyph unicode="&#xbd;" horiz-adv-x="1779" d="M115 627l35 159h153l113 535q-14 -14 -40 -31.5t-54.5 -34t-59.5 -27.5t-53 -11l35 163q31 0 66.5 17.5t67.5 39t53.5 40t21.5 20.5h163l-151 -711h137l-35 -159h-452zM127 96l690 674l653 700l101 -110l-674 -664l-672 -710zM901 0q16 84 42 146.5t63.5 109.5t93 83 t131.5 67q51 20 103 39.5t93 43t67 55t26 79.5q0 92 -138 92q-82 0 -145 -34t-104 -69l-76 119q18 20 54 45t85 46.5t110.5 35.5t131.5 14q129 0 196.5 -57t67.5 -158q0 -72 -23.5 -125t-65.5 -91t-98.5 -65.5t-121.5 -47.5q-98 -33 -145.5 -77t-57.5 -91h414l-33 -160h-670 z" />
<glyph unicode="&#xbe;" horiz-adv-x="1740" d="M106 772l113 121q2 -14 14.5 -33.5t37 -38t62.5 -32t91 -13.5q43 0 83 7.5t70.5 22.5t49 36.5t18.5 50.5q0 53 -70.5 77.5t-195.5 24.5h-47l30 150h46q129 0 207.5 27.5t78.5 91.5q0 41 -45 61.5t-96 20.5q-78 0 -136.5 -28t-105.5 -73l-75 131q57 59 153 90t195 31 q129 0 208.5 -58.5t79.5 -146.5q0 -86 -61 -140t-168 -75q78 -12 121 -63t43 -119q0 -72 -37 -126t-95.5 -89t-132 -52.5t-149.5 -17.5q-123 0 -198.5 42t-88.5 120zM266 96l690 674l654 700l100 -110l-674 -664l-671 -710zM864 190l33 158l590 516h110l-110 -514h121 l-35 -160h-119l-41 -190h-160l39 190h-428zM1055 350h278l66 314z" />
<glyph unicode="&#xbf;" horiz-adv-x="954" d="M-76 -117q0 90 21.5 156.5t60.5 116t90 86.5t111 69q45 25 90 47.5t83 50t66.5 62.5t38.5 88h226q-20 -100 -66.5 -182t-159.5 -137q-61 -31 -117.5 -60.5t-100.5 -65.5t-70.5 -81t-26.5 -105q0 -68 42 -104.5t101 -36.5q41 0 78 15.5t70 39t59.5 52t46.5 57.5l154 -123 q-78 -127 -204 -195.5t-261 -68.5q-63 0 -123.5 18.5t-106.5 57t-74 99t-28 144.5zM522 754l60 282h225l-59 -282h-226z" />
<glyph unicode="&#xc0;" d="M-109 0l830 1454h252l211 -1454h-291l-45 362h-469l-197 -362h-291zM467 561h375l-64 572zM662 1878h251l54 -244l-191 -37z" />
<glyph unicode="&#xc1;" d="M-109 0l830 1454h252l211 -1454h-291l-45 362h-469l-197 -362h-291zM467 561h375l-64 572zM733 1632l156 244h254l-232 -279z" />
<glyph unicode="&#xc2;" d="M-109 0l830 1454h252l211 -1454h-291l-45 362h-469l-197 -362h-291zM467 561h375l-64 572zM586 1669l252 207h198l164 -207l-158 -65l-137 129l-192 -129z" />
<glyph unicode="&#xc3;" d="M-109 0l830 1454h252l211 -1454h-291l-45 362h-469l-197 -362h-291zM467 561h375l-64 572zM500 1608q4 18 24.5 62t57 88t89 78t117.5 34q45 0 74 -15.5t53.5 -33t49 -32.5t59.5 -15t58.5 14t38 32.5t21.5 35t7 20.5h149q-4 -14 -24.5 -57t-58 -88t-92 -81t-124.5 -36 q-43 0 -73.5 14t-56 31.5t-50 32t-57.5 14.5t-54.5 -14.5t-33.5 -33t-17.5 -33.5t-5.5 -17h-151z" />
<glyph unicode="&#xc4;" d="M-109 0l830 1454h252l211 -1454h-291l-45 362h-469l-197 -362h-291zM467 561h375l-64 572zM557 1620l53 244h228l-54 -244h-227zM942 1620l51 244h226l-50 -244h-227z" />
<glyph unicode="&#xc5;" d="M-109 0l830 1454h252l211 -1454h-291l-45 362h-469l-197 -362h-291zM467 561h375l-64 572zM696 1688q0 90 65.5 139t166.5 49q78 0 121 -34t43 -93q0 -88 -64.5 -138t-167.5 -50q-76 0 -120 34t-44 93zM815 1706q0 -27 17.5 -44t46.5 -17q35 0 65.5 24.5t30.5 61.5 q0 29 -18.5 45t-47.5 16q-39 0 -66.5 -24.5t-27.5 -61.5z" />
<glyph unicode="&#xc6;" horiz-adv-x="1902" d="M-164 0l1168 1454h991l-53 -248h-637l-72 -342h530l-53 -248h-530l-78 -368h651l-51 -248h-934l78 362h-436l-273 -362h-301zM584 608h293l112 529z" />
<glyph unicode="&#xc7;" horiz-adv-x="1343" d="M72 606q0 100 28.5 202.5t83 198t131 178.5t172 144.5t206 97t233.5 35.5q193 0 314.5 -88t158.5 -229l-248 -150q-12 61 -41 103.5t-69 67t-86 35.5t-91 11q-115 0 -209 -55t-159.5 -141t-101.5 -190.5t-36 -202.5q0 -78 20.5 -147.5t59.5 -123t95.5 -84t130.5 -30.5 q45 0 97 12t102 38.5t96.5 68.5t82.5 102l203 -133q-45 -74 -111.5 -133.5t-145.5 -102.5t-163 -67.5t-163 -30.5l-64 -78q14 4 30.5 6t33.5 2q59 0 99 -27.5t40 -87.5q0 -88 -74 -148t-223 -60q-66 0 -116 12t-85 29l76 100q20 -14 66.5 -26.5t99.5 -12.5q55 0 90 18.5 t35 61.5q0 31 -24.5 43t-65.5 12t-88.5 -9t-71.5 -15l123 180q-113 12 -201 67.5t-147.5 139.5t-91 189.5t-31.5 217.5z" />
<glyph unicode="&#xc8;" horiz-adv-x="1183" d="M20 0l310 1454h942l-51 -248h-664l-74 -350h572l-49 -229h-572l-80 -379h680l-53 -248h-961zM666 1878h252l53 -244l-191 -37z" />
<glyph unicode="&#xc9;" horiz-adv-x="1183" d="M20 0l310 1454h942l-51 -248h-664l-74 -350h572l-49 -229h-572l-80 -379h680l-53 -248h-961zM705 1632l155 244h254l-231 -279z" />
<glyph unicode="&#xca;" horiz-adv-x="1183" d="M20 0l310 1454h942l-51 -248h-664l-74 -350h572l-49 -229h-572l-80 -379h680l-53 -248h-961zM541 1669l252 207h198l164 -207l-158 -65l-137 129l-192 -129z" />
<glyph unicode="&#xcb;" horiz-adv-x="1183" d="M20 0l310 1454h942l-51 -248h-664l-74 -350h572l-49 -229h-572l-80 -379h680l-53 -248h-961zM528 1620l54 244h227l-53 -244h-228zM913 1620l52 244h225l-49 -244h-228z" />
<glyph unicode="&#xcc;" horiz-adv-x="583" d="M20 0l310 1452h280l-309 -1452h-281zM328 1878h252l53 -244l-191 -37z" />
<glyph unicode="&#xcd;" horiz-adv-x="583" d="M20 0l310 1452h280l-309 -1452h-281zM348 1632l156 244h254l-232 -279z" />
<glyph unicode="&#xce;" horiz-adv-x="583" d="M20 0l310 1452h280l-309 -1452h-281zM209 1669l252 207h198l164 -207l-157 -65l-138 129l-192 -129z" />
<glyph unicode="&#xcf;" horiz-adv-x="583" d="M20 0l310 1452h280l-309 -1452h-281zM199 1620l53 244h227l-53 -244h-227zM584 1620l51 244h225l-49 -244h-227z" />
<glyph unicode="&#xd0;" horiz-adv-x="1429" d="M31 0l133 629h-90l43 205h90l133 620h506q141 0 244.5 -44t171 -120t100.5 -178t33 -221q0 -193 -64.5 -355.5t-180.5 -281.5t-272.5 -186.5t-340.5 -67.5h-506zM365 248h225q117 0 212 49t162.5 132t104.5 191.5t37 229.5q0 80 -20.5 145.5t-59.5 112.5t-98.5 72.5 t-134.5 25.5h-224l-80 -372h267l-45 -205h-267z" />
<glyph unicode="&#xd1;" horiz-adv-x="1501" d="M20 0l310 1454h219l495 -954l203 952h281l-309 -1452h-228l-493 932l-197 -932h-281zM588 1608q4 18 24.5 62t57.5 88t89 78t118 34q45 0 73.5 -15.5t53 -33t49 -32.5t59.5 -15t58.5 14t38 32.5t21.5 35t7 20.5h149q-4 -14 -24.5 -57t-58 -88t-92 -81t-124.5 -36 q-43 0 -73.5 14t-56 31.5t-50 32t-57.5 14.5t-54.5 -14.5t-33.5 -33t-17.5 -33.5t-5.5 -17h-151z" />
<glyph unicode="&#xd2;" horiz-adv-x="1492" d="M76 594q0 166 70.5 322.5t189.5 278.5t273.5 195.5t322.5 73.5q129 0 228.5 -51t166 -135t101 -194.5t34.5 -227.5q0 -164 -69.5 -320.5t-187.5 -277.5t-271.5 -194.5t-321.5 -73.5q-129 0 -229 50t-169 134t-103.5 192.5t-34.5 227.5zM362 616q0 -76 18.5 -143 t57.5 -119.5t95.5 -83t134.5 -30.5q113 0 206 55t160.5 141t104.5 191.5t37 208.5q0 76 -18.5 144.5t-56.5 119.5t-95.5 81.5t-133.5 30.5q-113 0 -207 -54t-161.5 -140t-104.5 -191.5t-37 -210.5zM807 1878h252l53 -244l-190 -37z" />
<glyph unicode="&#xd3;" horiz-adv-x="1492" d="M76 594q0 166 70.5 322.5t189.5 278.5t273.5 195.5t322.5 73.5q129 0 228.5 -51t166 -135t101 -194.5t34.5 -227.5q0 -164 -69.5 -320.5t-187.5 -277.5t-271.5 -194.5t-321.5 -73.5q-129 0 -229 50t-169 134t-103.5 192.5t-34.5 227.5zM362 616q0 -76 18.5 -143 t57.5 -119.5t95.5 -83t134.5 -30.5q113 0 206 55t160.5 141t104.5 191.5t37 208.5q0 76 -18.5 144.5t-56.5 119.5t-95.5 81.5t-133.5 30.5q-113 0 -207 -54t-161.5 -140t-104.5 -191.5t-37 -210.5zM834 1632l155 244h254l-231 -279z" />
<glyph unicode="&#xd4;" horiz-adv-x="1492" d="M76 594q0 166 70.5 322.5t189.5 278.5t273.5 195.5t322.5 73.5q129 0 228.5 -51t166 -135t101 -194.5t34.5 -227.5q0 -164 -69.5 -320.5t-187.5 -277.5t-271.5 -194.5t-321.5 -73.5q-129 0 -229 50t-169 134t-103.5 192.5t-34.5 227.5zM362 616q0 -76 18.5 -143 t57.5 -119.5t95.5 -83t134.5 -30.5q113 0 206 55t160.5 141t104.5 191.5t37 208.5q0 76 -18.5 144.5t-56.5 119.5t-95.5 81.5t-133.5 30.5q-113 0 -207 -54t-161.5 -140t-104.5 -191.5t-37 -210.5zM674 1669l252 207h198l164 -207l-158 -65l-137 129l-192 -129z" />
<glyph unicode="&#xd5;" horiz-adv-x="1492" d="M76 594q0 166 70.5 322.5t189.5 278.5t273.5 195.5t322.5 73.5q129 0 228.5 -51t166 -135t101 -194.5t34.5 -227.5q0 -164 -69.5 -320.5t-187.5 -277.5t-271.5 -194.5t-321.5 -73.5q-129 0 -229 50t-169 134t-103.5 192.5t-34.5 227.5zM362 616q0 -76 18.5 -143 t57.5 -119.5t95.5 -83t134.5 -30.5q113 0 206 55t160.5 141t104.5 191.5t37 208.5q0 76 -18.5 144.5t-56.5 119.5t-95.5 81.5t-133.5 30.5q-113 0 -207 -54t-161.5 -140t-104.5 -191.5t-37 -210.5zM594 1608q4 18 24.5 62t57.5 88t89 78t118 34q45 0 73.5 -15.5t53 -33 t49 -32.5t59.5 -15t58.5 14t38 32.5t21.5 35t7 20.5h150q-4 -14 -24.5 -57t-58.5 -88t-92 -81t-124 -36q-43 0 -74 14t-56.5 31.5t-50 32t-57.5 14.5t-54.5 -14.5t-33.5 -33t-17.5 -33.5t-5.5 -17h-151z" />
<glyph unicode="&#xd6;" horiz-adv-x="1492" d="M76 594q0 166 70.5 322.5t189.5 278.5t273.5 195.5t322.5 73.5q129 0 228.5 -51t166 -135t101 -194.5t34.5 -227.5q0 -164 -69.5 -320.5t-187.5 -277.5t-271.5 -194.5t-321.5 -73.5q-129 0 -229 50t-169 134t-103.5 192.5t-34.5 227.5zM362 616q0 -76 18.5 -143 t57.5 -119.5t95.5 -83t134.5 -30.5q113 0 206 55t160.5 141t104.5 191.5t37 208.5q0 76 -18.5 144.5t-56.5 119.5t-95.5 81.5t-133.5 30.5q-113 0 -207 -54t-161.5 -140t-104.5 -191.5t-37 -210.5zM657 1620l54 244h227l-53 -244h-228zM1042 1620l52 244h225l-49 -244h-228z " />
<glyph unicode="&#xd7;" horiz-adv-x="997" d="M100 354l209 209l-200 203l174 170l200 -201l201 203l170 -172l-201 -203l213 -211l-174 -170l-211 211l-211 -211z" />
<glyph unicode="&#xd8;" horiz-adv-x="1492" d="M-18 0l196 223q-51 78 -76.5 173.5t-25.5 197.5q0 166 70.5 322.5t189.5 278.5t273.5 195.5t322.5 73.5q78 0 146.5 -20.5t123.5 -54.5l58 65h303l-201 -227q49 -80 74.5 -175.5t25.5 -195.5q0 -164 -69.5 -320.5t-187.5 -277.5t-271.5 -194.5t-321.5 -73.5 q-80 0 -147.5 19.5t-124.5 53.5l-55 -63h-303zM362 616q0 -41 5.5 -81.5t17.5 -75.5l631 717q-31 16 -67 26t-77 10q-113 0 -207 -54t-161.5 -140t-104.5 -192t-37 -210zM524 274q64 -34 144 -34q113 0 206 55t160.5 141t104.5 191.5t37 208.5q0 80 -23 153z" />
<glyph unicode="&#xd9;" horiz-adv-x="1472" d="M125 481q0 113 27 232l157 741h281l-158 -741q-10 -47 -15 -93.5t-5 -89.5q0 -61 12 -114.5t42 -92t76 -61t113 -22.5q92 0 164 41t124 106.5t87 150.5t53 175l158 741h281l-158 -741q-31 -150 -94.5 -281t-157.5 -229.5t-221 -155.5t-287 -57q-131 0 -222 38 t-148.5 104.5t-83 155.5t-25.5 193zM774 1878h252l53 -244l-190 -37z" />
<glyph unicode="&#xda;" horiz-adv-x="1472" d="M125 481q0 113 27 232l157 741h281l-158 -741q-10 -47 -15 -93.5t-5 -89.5q0 -61 12 -114.5t42 -92t76 -61t113 -22.5q92 0 164 41t124 106.5t87 150.5t53 175l158 741h281l-158 -741q-31 -150 -94.5 -281t-157.5 -229.5t-221 -155.5t-287 -57q-131 0 -222 38 t-148.5 104.5t-83 155.5t-25.5 193zM807 1632l156 244h254l-232 -279z" />
<glyph unicode="&#xdb;" horiz-adv-x="1472" d="M125 481q0 113 27 232l157 741h281l-158 -741q-10 -47 -15 -93.5t-5 -89.5q0 -61 12 -114.5t42 -92t76 -61t113 -22.5q92 0 164 41t124 106.5t87 150.5t53 175l158 741h281l-158 -741q-31 -150 -94.5 -281t-157.5 -229.5t-221 -155.5t-287 -57q-131 0 -222 38 t-148.5 104.5t-83 155.5t-25.5 193zM645 1669l252 207h199l164 -207l-158 -65l-137 129l-193 -129z" />
<glyph unicode="&#xdc;" horiz-adv-x="1472" d="M125 481q0 113 27 232l157 741h281l-158 -741q-10 -47 -15 -93.5t-5 -89.5q0 -61 12 -114.5t42 -92t76 -61t113 -22.5q92 0 164 41t124 106.5t87 150.5t53 175l158 741h281l-158 -741q-31 -150 -94.5 -281t-157.5 -229.5t-221 -155.5t-287 -57q-131 0 -222 38 t-148.5 104.5t-83 155.5t-25.5 193zM633 1620l53 244h227l-53 -244h-227zM1018 1620l51 244h225l-49 -244h-227z" />
<glyph unicode="&#xdd;" horiz-adv-x="1267" d="M166 1454h307l180 -700l484 700h305l-703 -946l-106 -508h-281l109 512zM688 1632l156 244h254l-232 -279z" />
<glyph unicode="&#xde;" horiz-adv-x="1193" d="M20 0l310 1454h280l-55 -262h270q84 0 149.5 -34t110.5 -90t69 -129t24 -148q0 -102 -43 -204t-118 -181.5t-174.5 -130t-209.5 -50.5h-285l-47 -225h-281zM401 473h271q43 0 83 24.5t70.5 64.5t49 92.5t18.5 107.5q0 80 -38 131t-95 51h-258z" />
<glyph unicode="&#xdf;" horiz-adv-x="1101" d="M-8 0l225 1069q18 86 67.5 158.5t119 125t155.5 81t178 28.5q143 0 232.5 -73.5t89.5 -200.5q0 -61 -21.5 -119.5t-55.5 -108t-77 -85t-86 -52.5q94 -29 144.5 -111.5t50.5 -193.5q0 -141 -56.5 -240.5t-149.5 -163t-211 -94t-241 -32.5l54 252q66 0 124 17t101 50 t67.5 82t24.5 117q0 86 -50 131t-120 45h-41l51 246h39q41 0 74 15t56.5 41t35.5 59.5t12 68.5q0 59 -34.5 88t-83.5 29q-82 0 -130.5 -59.5t-66.5 -147.5l-217 -1022h-260z" />
<glyph unicode="&#xe0;" horiz-adv-x="1277" d="M31 420q0 133 48 255t129 214t187.5 147.5t222.5 55.5q111 0 189 -57.5t106 -149.5l41 184h275l-160 -754q-6 -23 -6 -36q0 -43 49 -46l-49 -233q-37 -6 -64.5 -10t-48.5 -4q-72 0 -113.5 30.5t-41.5 92.5q0 25 12 77q-78 -102 -183.5 -154t-211.5 -52q-90 0 -161 33.5 t-120 93t-74.5 140.5t-25.5 173zM319 463q0 -106 58 -178t158 -72q35 0 74.5 13.5t76.5 38t69.5 57t55.5 71.5l53 256q-12 90 -71.5 149.5t-137.5 59.5q-66 0 -127 -33.5t-107 -90t-74 -127t-28 -144.5zM485 1495h252l54 -244l-191 -37z" />
<glyph unicode="&#xe1;" horiz-adv-x="1277" d="M31 420q0 133 48 255t129 214t187.5 147.5t222.5 55.5q111 0 189 -57.5t106 -149.5l41 184h275l-160 -754q-6 -23 -6 -36q0 -43 49 -46l-49 -233q-37 -6 -64.5 -10t-48.5 -4q-72 0 -113.5 30.5t-41.5 92.5q0 25 12 77q-78 -102 -183.5 -154t-211.5 -52q-90 0 -161 33.5 t-120 93t-74.5 140.5t-25.5 173zM319 463q0 -106 58 -178t158 -72q35 0 74.5 13.5t76.5 38t69.5 57t55.5 71.5l53 256q-12 90 -71.5 149.5t-137.5 59.5q-66 0 -127 -33.5t-107 -90t-74 -127t-28 -144.5zM565 1251l156 244h254l-232 -278z" />
<glyph unicode="&#xe2;" horiz-adv-x="1277" d="M31 420q0 133 48 255t129 214t187.5 147.5t222.5 55.5q111 0 189 -57.5t106 -149.5l41 184h275l-160 -754q-6 -23 -6 -36q0 -43 49 -46l-49 -233q-37 -6 -64.5 -10t-48.5 -4q-72 0 -113.5 30.5t-41.5 92.5q0 25 12 77q-78 -102 -183.5 -154t-211.5 -52q-90 0 -161 33.5 t-120 93t-74.5 140.5t-25.5 173zM319 463q0 -106 58 -178t158 -72q35 0 74.5 13.5t76.5 38t69.5 57t55.5 71.5l53 256q-12 90 -71.5 149.5t-137.5 59.5q-66 0 -127 -33.5t-107 -90t-74 -127t-28 -144.5zM391 1288l252 207h199l164 -207l-158 -65l-137 129l-193 -129z" />
<glyph unicode="&#xe3;" horiz-adv-x="1277" d="M31 420q0 133 48 255t129 214t187.5 147.5t222.5 55.5q111 0 189 -57.5t106 -149.5l41 184h275l-160 -754q-6 -23 -6 -36q0 -43 49 -46l-49 -233q-37 -6 -64.5 -10t-48.5 -4q-72 0 -113.5 30.5t-41.5 92.5q0 25 12 77q-78 -102 -183.5 -154t-211.5 -52q-90 0 -161 33.5 t-120 93t-74.5 140.5t-25.5 173zM307 1227q4 18 24.5 62t57.5 88t89 78t118 34q45 0 73.5 -15.5t53.5 -33t49.5 -32.5t58.5 -15q35 0 58.5 14t38 32.5t21.5 35t7 20.5h150q-4 -14 -24.5 -57t-58.5 -88t-92 -81t-124 -36q-43 0 -74 14.5t-56.5 31.5t-50 31.5t-57.5 14.5 t-54 -14.5t-33.5 -32.5t-17.5 -33.5t-5 -17.5h-152zM319 463q0 -106 58 -178t158 -72q35 0 74.5 13.5t76.5 38t69.5 57t55.5 71.5l53 256q-12 90 -71.5 149.5t-137.5 59.5q-66 0 -127 -33.5t-107 -90t-74 -127t-28 -144.5z" />
<glyph unicode="&#xe4;" horiz-adv-x="1277" d="M31 420q0 133 48 255t129 214t187.5 147.5t222.5 55.5q111 0 189 -57.5t106 -149.5l41 184h275l-160 -754q-6 -23 -6 -36q0 -43 49 -46l-49 -233q-37 -6 -64.5 -10t-48.5 -4q-72 0 -113.5 30.5t-41.5 92.5q0 25 12 77q-78 -102 -183.5 -154t-211.5 -52q-90 0 -161 33.5 t-120 93t-74.5 140.5t-25.5 173zM319 463q0 -106 58 -178t158 -72q35 0 74.5 13.5t76.5 38t69.5 57t55.5 71.5l53 256q-12 90 -71.5 149.5t-137.5 59.5q-66 0 -127 -33.5t-107 -90t-74 -127t-28 -144.5zM383 1237l53 244h228l-54 -244h-227zM768 1237l51 244h225l-49 -244 h-227z" />
<glyph unicode="&#xe5;" horiz-adv-x="1277" d="M31 420q0 133 48 255t129 214t187.5 147.5t222.5 55.5q111 0 189 -57.5t106 -149.5l41 184h275l-160 -754q-6 -23 -6 -36q0 -43 49 -46l-49 -233q-37 -6 -64.5 -10t-48.5 -4q-72 0 -113.5 30.5t-41.5 92.5q0 25 12 77q-78 -102 -183.5 -154t-211.5 -52q-90 0 -161 33.5 t-120 93t-74.5 140.5t-25.5 173zM319 463q0 -106 58 -178t158 -72q35 0 74.5 13.5t76.5 38t69.5 57t55.5 71.5l53 256q-12 90 -71.5 149.5t-137.5 59.5q-66 0 -127 -33.5t-107 -90t-74 -127t-28 -144.5zM506 1307q0 90 65.5 139t165.5 49q78 0 121 -34t43 -93 q0 -88 -64.5 -138t-166.5 -50q-76 0 -120 34t-44 93zM625 1325q0 -27 17 -44t46 -17q35 0 65.5 24.5t30.5 61.5q0 29 -18 45t-47 16q-39 0 -66.5 -24.5t-27.5 -61.5z" />
<glyph unicode="&#xe6;" horiz-adv-x="1830" d="M-20 260q0 88 40.5 162t110.5 128t164 85t201 31q63 0 120.5 -10.5t98.5 -30.5q10 39 23.5 69.5t13.5 65.5q0 63 -46.5 102t-138.5 39q-80 0 -164 -30.5t-180 -90.5l-45 174q229 137 459 138q119 0 200 -40t121 -112q80 70 180.5 111t215.5 41q106 0 187 -35t135.5 -96.5 t82 -143.5t27.5 -174q0 -78 -14.5 -124t-24.5 -70h-786q-2 -12 -2.5 -23.5t-0.5 -22.5q0 -59 17.5 -101t46.5 -69.5t67.5 -40t79.5 -12.5q76 0 152 40t115 106l219 -66q-41 -61 -98.5 -112.5t-126 -89.5t-147.5 -58t-165 -20q-147 0 -246.5 60t-146.5 161 q-47 -59 -106.5 -101.5t-121 -69t-120 -38.5t-107.5 -12q-135 0 -212.5 78.5t-77.5 201.5zM248 313q0 -57 36.5 -95t108.5 -38q37 0 80 11.5t83 31t73 45t49 54.5q-2 10 -3 23t-1 28q0 47 10 104q-39 16 -86 25.5t-90 9.5q-53 0 -101.5 -15.5t-83 -41t-55 -62.5t-20.5 -80z M991 618h514q2 14 2 25.5v26.5q0 102 -53 162.5t-149 60.5q-106 0 -192.5 -76t-121.5 -199z" />
<glyph unicode="&#xe7;" horiz-adv-x="1110" d="M31 430q0 127 50 247t139 212t213 147.5t269 55.5q170 0 271.5 -76t134.5 -199l-283 -82q-20 59 -65 91t-111 32q-63 0 -123.5 -29.5t-106.5 -83t-75 -126t-29 -156.5q0 -111 54.5 -180.5t144.5 -69.5q66 0 130.5 37t98.5 90l250 -82q-74 -113 -197.5 -188.5 t-277.5 -87.5l-55 -68q14 4 30.5 6t32.5 2q59 0 99.5 -27.5t40.5 -87.5q0 -88 -74 -148t-223 -60q-66 0 -116 12t-85 29l76 100q20 -14 66 -26.5t100 -12.5q55 0 90 18.5t35 61.5q0 31 -25 43t-66 12t-88 -9t-71 -15l118 172q-92 10 -161.5 49t-116.5 98t-70.5 136 t-23.5 163z" />
<glyph unicode="&#xe8;" horiz-adv-x="1128" d="M33 432q0 133 52 253t143 210t215 143.5t268 53.5q174 0 277.5 -77t103.5 -222q0 -346 -619 -347h-76t-82 5v-27q0 -109 49.5 -176.5t155.5 -67.5q82 0 155 39t116 109l217 -68q-41 -61 -100.5 -113.5t-130 -89.5t-148.5 -57t-158 -20q-102 0 -183 33.5t-138.5 94 t-87 143.5t-29.5 181zM348 623q33 -2 63.5 -2h63.5q98 0 167 10t111 30.5t60 48t18 64.5q0 59 -44.5 89t-116.5 30q-59 0 -110.5 -21.5t-91.5 -58.5t-70.5 -86t-49.5 -104zM553 1495h252l53 -244l-190 -37z" />
<glyph unicode="&#xe9;" horiz-adv-x="1128" d="M33 432q0 133 52 253t143 210t215 143.5t268 53.5q174 0 277.5 -77t103.5 -222q0 -346 -619 -347h-76t-82 5v-27q0 -109 49.5 -176.5t155.5 -67.5q82 0 155 39t116 109l217 -68q-41 -61 -100.5 -113.5t-130 -89.5t-148.5 -57t-158 -20q-102 0 -183 33.5t-138.5 94 t-87 143.5t-29.5 181zM348 623q33 -2 63.5 -2h63.5q98 0 167 10t111 30.5t60 48t18 64.5q0 59 -44.5 89t-116.5 30q-59 0 -110.5 -21.5t-91.5 -58.5t-70.5 -86t-49.5 -104zM580 1251l155 244h254l-231 -278z" />
<glyph unicode="&#xea;" horiz-adv-x="1128" d="M33 432q0 133 52 253t143 210t215 143.5t268 53.5q174 0 277.5 -77t103.5 -222q0 -346 -619 -347h-76t-82 5v-27q0 -109 49.5 -176.5t155.5 -67.5q82 0 155 39t116 109l217 -68q-41 -61 -100.5 -113.5t-130 -89.5t-148.5 -57t-158 -20q-102 0 -183 33.5t-138.5 94 t-87 143.5t-29.5 181zM348 623q33 -2 63.5 -2h63.5q98 0 167 10t111 30.5t60 48t18 64.5q0 59 -44.5 89t-116.5 30q-59 0 -110.5 -21.5t-91.5 -58.5t-70.5 -86t-49.5 -104zM446 1288l252 207h199l164 -207l-158 -65l-137 129l-193 -129z" />
<glyph unicode="&#xeb;" horiz-adv-x="1128" d="M33 432q0 133 52 253t143 210t215 143.5t268 53.5q174 0 277.5 -77t103.5 -222q0 -346 -619 -347h-76t-82 5v-27q0 -109 49.5 -176.5t155.5 -67.5q82 0 155 39t116 109l217 -68q-41 -61 -100.5 -113.5t-130 -89.5t-148.5 -57t-158 -20q-102 0 -183 33.5t-138.5 94 t-87 143.5t-29.5 181zM348 623q33 -2 63.5 -2h63.5q98 0 167 10t111 30.5t60 48t18 64.5q0 59 -44.5 89t-116.5 30q-59 0 -110.5 -21.5t-91.5 -58.5t-70.5 -86t-49.5 -104zM426 1237l53 244h228l-54 -244h-227zM811 1237l51 244h225l-49 -244h-227z" />
<glyph unicode="&#xec;" horiz-adv-x="518" d="M-8 0l227 1073h275l-228 -1073h-274zM201 1495h252l53 -244l-191 -37z" />
<glyph unicode="&#xed;" horiz-adv-x="518" d="M-8 0l227 1073h275l-228 -1073h-274zM254 1251l156 244h254l-232 -278z" />
<glyph unicode="&#xee;" horiz-adv-x="518" d="M-8 0l227 1073h275l-228 -1073h-274zM104 1288l252 207h199l164 -207l-158 -65l-137 129l-193 -129z" />
<glyph unicode="&#xef;" horiz-adv-x="518" d="M-8 0l227 1073h275l-228 -1073h-274zM82 1237l53 244h227l-53 -244h-227zM467 1237l51 244h225l-49 -244h-227z" />
<glyph unicode="&#xf0;" horiz-adv-x="1212" d="M25 391q0 117 49 221.5t131 183t187.5 125t215.5 46.5q98 0 175 -44t116 -116q-4 98 -26.5 187t-71.5 175l-191 -100l-55 107l176 94q-47 57 -112.5 113.5t-151.5 111.5h348q41 -27 77 -59.5t66 -69.5l179 94l55 -108l-164 -84q66 -113 97.5 -243t31.5 -257 q0 -180 -55 -325.5t-150.5 -249t-221.5 -158.5t-269 -55q-98 0 -179 30.5t-138.5 86t-88 131t-30.5 163.5zM309 426q0 -92 55.5 -152.5t149.5 -60.5q63 0 122.5 26.5t103.5 70.5t71 102.5t27 124.5q0 92 -55.5 150t-151.5 58q-63 0 -121.5 -25.5t-103 -68.5t-71 -101 t-26.5 -124z" />
<glyph unicode="&#xf1;" horiz-adv-x="1191" d="M-8 0l227 1073h248l-43 -199q78 102 196.5 160t251.5 58q70 0 116 -19.5t74 -52.5t39 -79t11 -97q0 -41 -5 -85t-15 -89l-142 -670h-274l127 602q6 31 10 58.5t4 50.5q0 72 -31.5 105.5t-85.5 33.5q-37 0 -79.5 -16.5t-83.5 -46t-77 -70.5t-61 -90l-133 -627h-274z M330 1227q4 18 24.5 62t57.5 88t89 78t117 34q45 0 74 -15.5t53.5 -33t49 -32.5t59.5 -15t58.5 14t38 32.5t21.5 35t7 20.5h149q-4 -14 -24.5 -57t-58 -88t-92 -81t-124.5 -36q-43 0 -73.5 14.5t-56 31.5t-50 31.5t-57.5 14.5t-54.5 -14.5t-33.5 -32.5t-17.5 -33.5 t-5.5 -17.5h-151z" />
<glyph unicode="&#xf2;" horiz-adv-x="1200" d="M31 426q0 127 50 247t139 213t212 149.5t268 56.5q106 0 187.5 -36t136.5 -96.5t83 -142.5t28 -174q0 -127 -50.5 -245.5t-139.5 -212t-212 -149.5t-268 -56q-109 0 -189.5 35.5t-135 97t-82 142.5t-27.5 171zM315 461q0 -111 53.5 -179.5t145.5 -68.5q63 0 123.5 31.5 t108 85t76 126t28.5 154.5q0 111 -53.5 179.5t-145.5 68.5q-63 0 -123.5 -31.5t-107.5 -86t-76 -126t-29 -153.5zM561 1495h252l53 -244l-190 -37z" />
<glyph unicode="&#xf3;" horiz-adv-x="1200" d="M31 426q0 127 50 247t139 213t212 149.5t268 56.5q106 0 187.5 -36t136.5 -96.5t83 -142.5t28 -174q0 -127 -50.5 -245.5t-139.5 -212t-212 -149.5t-268 -56q-109 0 -189.5 35.5t-135 97t-82 142.5t-27.5 171zM315 461q0 -111 53.5 -179.5t145.5 -68.5q63 0 123.5 31.5 t108 85t76 126t28.5 154.5q0 111 -53.5 179.5t-145.5 68.5q-63 0 -123.5 -31.5t-107.5 -86t-76 -126t-29 -153.5zM596 1251l156 244h254l-232 -278z" />
<glyph unicode="&#xf4;" horiz-adv-x="1200" d="M31 426q0 127 50 247t139 213t212 149.5t268 56.5q106 0 187.5 -36t136.5 -96.5t83 -142.5t28 -174q0 -127 -50.5 -245.5t-139.5 -212t-212 -149.5t-268 -56q-109 0 -189.5 35.5t-135 97t-82 142.5t-27.5 171zM315 461q0 -111 53.5 -179.5t145.5 -68.5q63 0 123.5 31.5 t108 85t76 126t28.5 154.5q0 111 -53.5 179.5t-145.5 68.5q-63 0 -123.5 -31.5t-107.5 -86t-76 -126t-29 -153.5zM442 1288l252 207h199l164 -207l-158 -65l-137 129l-193 -129z" />
<glyph unicode="&#xf5;" horiz-adv-x="1200" d="M31 426q0 127 50 247t139 213t212 149.5t268 56.5q106 0 187.5 -36t136.5 -96.5t83 -142.5t28 -174q0 -127 -50.5 -245.5t-139.5 -212t-212 -149.5t-268 -56q-109 0 -189.5 35.5t-135 97t-82 142.5t-27.5 171zM315 461q0 -111 53.5 -179.5t145.5 -68.5q63 0 123.5 31.5 t108 85t76 126t28.5 154.5q0 111 -53.5 179.5t-145.5 68.5q-63 0 -123.5 -31.5t-107.5 -86t-76 -126t-29 -153.5zM354 1227q4 18 24.5 62t57.5 88t89.5 78t117.5 34q45 0 73.5 -15.5t53.5 -33t49.5 -32.5t59.5 -15t58.5 14t37.5 32.5t21.5 35t7.5 20.5h149q-4 -14 -24.5 -57 t-58.5 -88t-92 -81t-124 -36q-43 0 -73.5 14.5t-56.5 31.5t-50.5 31.5t-57.5 14.5t-54 -14.5t-33.5 -32.5t-17.5 -33.5t-5 -17.5h-152z" />
<glyph unicode="&#xf6;" horiz-adv-x="1200" d="M31 426q0 127 50 247t139 213t212 149.5t268 56.5q106 0 187.5 -36t136.5 -96.5t83 -142.5t28 -174q0 -127 -50.5 -245.5t-139.5 -212t-212 -149.5t-268 -56q-109 0 -189.5 35.5t-135 97t-82 142.5t-27.5 171zM315 461q0 -111 53.5 -179.5t145.5 -68.5q63 0 123.5 31.5 t108 85t76 126t28.5 154.5q0 111 -53.5 179.5t-145.5 68.5q-63 0 -123.5 -31.5t-107.5 -86t-76 -126t-29 -153.5zM432 1237l53 244h228l-54 -244h-227zM817 1237l51 244h226l-50 -244h-227z" />
<glyph unicode="&#xf7;" horiz-adv-x="1064" d="M117 500v219h827v-219h-827zM416 98v264h231v-264h-231zM416 858v262h231v-262h-231z" />
<glyph unicode="&#xf8;" horiz-adv-x="1200" d="M-33 -8l152 145q-45 59 -66.5 133t-21.5 156q0 127 50 247t139 213t213 149.5t269 56.5q80 0 145.5 -20.5t117.5 -57.5l69 67h156l-150 -141q94 -123 95 -297q0 -127 -50.5 -245.5t-139.5 -212t-212 -149.5t-268 -56q-84 0 -151.5 21.5t-118.5 61.5l-76 -71h-152z M315 461q0 -70 21 -119l436 471q-51 45 -121 45q-63 0 -123.5 -31.5t-107.5 -86t-76 -126t-29 -153.5zM387 262q49 -49 127 -49q63 0 123.5 31.5t108 85t76 126t28.5 154.5q0 66 -23 123z" />
<glyph unicode="&#xf9;" horiz-adv-x="1218" d="M45 242q0 35 5 74.5t16 84.5l143 672h272l-129 -612q-6 -31 -10 -55.5t-4 -47.5q0 -145 123 -145q72 0 150.5 48t144.5 147l141 665h274l-161 -758q-2 -10 -3 -19t-1 -17q0 -43 49 -46l-49 -233q-37 -6 -65 -10t-50 -4q-72 0 -112 28.5t-40 87.5q0 16 2 37t13 62 q-92 -111 -210 -166t-247 -55q-252 0 -252 262zM537 1495h251l54 -244l-191 -37z" />
<glyph unicode="&#xfa;" horiz-adv-x="1218" d="M45 242q0 35 5 74.5t16 84.5l143 672h272l-129 -612q-6 -31 -10 -55.5t-4 -47.5q0 -145 123 -145q72 0 150.5 48t144.5 147l141 665h274l-161 -758q-2 -10 -3 -19t-1 -17q0 -43 49 -46l-49 -233q-37 -6 -65 -10t-50 -4q-72 0 -112 28.5t-40 87.5q0 16 2 37t13 62 q-92 -111 -210 -166t-247 -55q-252 0 -252 262zM561 1251l156 244h254l-232 -278z" />
<glyph unicode="&#xfb;" horiz-adv-x="1218" d="M45 242q0 35 5 74.5t16 84.5l143 672h272l-129 -612q-6 -31 -10 -55.5t-4 -47.5q0 -145 123 -145q72 0 150.5 48t144.5 147l141 665h274l-161 -758q-2 -10 -3 -19t-1 -17q0 -43 49 -46l-49 -233q-37 -6 -65 -10t-50 -4q-72 0 -112 28.5t-40 87.5q0 16 2 37t13 62 q-92 -111 -210 -166t-247 -55q-252 0 -252 262zM436 1288l252 207h199l164 -207l-158 -65l-137 129l-193 -129z" />
<glyph unicode="&#xfc;" horiz-adv-x="1218" d="M45 242q0 35 5 74.5t16 84.5l143 672h272l-129 -612q-6 -31 -10 -55.5t-4 -47.5q0 -145 123 -145q72 0 150.5 48t144.5 147l141 665h274l-161 -758q-2 -10 -3 -19t-1 -17q0 -43 49 -46l-49 -233q-37 -6 -65 -10t-50 -4q-72 0 -112 28.5t-40 87.5q0 16 2 37t13 62 q-92 -111 -210 -166t-247 -55q-252 0 -252 262zM408 1237l53 244h227l-53 -244h-227zM793 1237l51 244h225l-49 -244h-227z" />
<glyph unicode="&#xfd;" horiz-adv-x="1064" d="M-90 -258q61 6 105 14t78 25.5t62.5 45.5t59.5 71l59 79l-178 1096h281l92 -835l70 114q63 104 110 195.5t84 177.5t63.5 171t49.5 177h266q-29 -98 -59.5 -184t-77.5 -182.5t-115.5 -214t-169.5 -281.5l-164 -264q-72 -115 -138 -194t-135 -128t-144.5 -70.5 t-165.5 -23.5zM498 1251l155 244h254l-231 -278z" />
<glyph unicode="&#xfe;" horiz-adv-x="1181" d="M-102 -436l401 1890h281q-14 -66 -29.5 -145.5t-32.5 -151.5q-18 -82 -35 -168q39 47 98.5 81t145.5 34q98 0 172 -38t123 -100.5t73.5 -142.5t24.5 -164q0 -119 -47 -244.5t-131 -228t-200.5 -169t-256.5 -66.5q-98 0 -142 32.5t-60 71.5q-20 -92 -39 -182 q-16 -78 -33.5 -162t-32.5 -147h-280zM344 338q0 -25 12.5 -49.5t37 -44t58 -32.5t76.5 -13q68 0 125.5 34.5t98.5 92t63.5 131t22.5 151.5q0 106 -45 177t-134 71q-72 0 -132 -48t-109 -120l-70 -328q-2 -6 -3 -10t-1 -12z" />
<glyph unicode="&#xff;" horiz-adv-x="1064" d="M-90 -258q61 6 105 14t78 25.5t62.5 45.5t59.5 71l59 79l-178 1096h281l92 -835l70 114q63 104 110 195.5t84 177.5t63.5 171t49.5 177h266q-29 -98 -59.5 -184t-77.5 -182.5t-115.5 -214t-169.5 -281.5l-164 -264q-72 -115 -138 -194t-135 -128t-144.5 -70.5 t-165.5 -23.5zM336 1237l53 244h227l-53 -244h-227zM721 1237l51 244h225l-49 -244h-227z" />
<glyph unicode="&#x131;" horiz-adv-x="518" d="M-8 0l227 1073h275l-228 -1073h-274z" />
<glyph unicode="&#x152;" horiz-adv-x="2113" d="M76 590q0 166 69.5 323.5t185 280.5t266.5 196.5t314 73.5q121 0 204 -63.5t128 -159.5l45 213h918l-54 -248h-636l-72 -342h530l-51 -248h-532l-78 -368h653l-53 -248h-934l45 215q-86 -98 -198.5 -161.5t-233.5 -63.5q-125 0 -221.5 50t-162 133t-99 191.5t-33.5 225.5 zM362 610q0 -74 17.5 -141.5t53.5 -118.5t89 -80.5t125 -29.5q109 0 199 55t154.5 143t100.5 195.5t36 210.5q0 74 -18.5 141.5t-53.5 117.5t-88 80.5t-123 30.5q-109 0 -199 -55t-154.5 -143t-101.5 -194.5t-37 -211.5z" />
<glyph unicode="&#x153;" horiz-adv-x="1976" d="M31 426q0 139 54 260t146.5 211t213 142.5t253.5 52.5q129 0 216 -64.5t130 -185.5q104 125 216 187.5t241 62.5q98 0 177 -33t134.5 -92.5t85 -141.5t29.5 -182q0 -78 -13 -124t-24 -70h-776q-4 -12 -4 -24.5v-23.5q0 -100 57.5 -163.5t153.5 -63.5q80 0 156.5 43 t113.5 109l215 -66q-90 -129 -233 -204.5t-301 -75.5q-123 0 -208 61t-151 180q-117 -123 -224 -182t-226 -59q-100 0 -180 33.5t-136.5 93t-86 141.5t-29.5 178zM315 457q0 -106 53.5 -175t145.5 -69q66 0 127 31.5t107.5 86t74 126t27.5 153.5q0 109 -53.5 178.5 t-145.5 69.5q-66 0 -126 -31.5t-107 -87t-75 -128t-28 -154.5zM1141 618h510q2 12 3 24.5t1 23.5q0 104 -55.5 165.5t-149.5 61.5q-104 0 -189 -76t-120 -199z" />
<glyph unicode="&#x178;" horiz-adv-x="1267" d="M166 1454h307l180 -700l484 700h305l-703 -946l-106 -508h-281l109 512zM526 1620l54 244h227l-53 -244h-228zM911 1620l52 244h225l-49 -244h-228z" />
<glyph unicode="&#x192;" horiz-adv-x="1077" d="M-135 -305l155 186q16 -23 44 -34t59 -11q49 0 92 38t55 97l164 766h-131l43 211h133l29 133q20 100 62 180t98.5 136.5t127 87.5t148.5 31q125 0 242 -64l-96 -207q-27 16 -64 27.5t-72 11.5q-129 0 -170 -192l-30 -144h245l-45 -211h-245l-162 -760 q-18 -84 -61.5 -153.5t-102.5 -119.5t-131 -77.5t-146 -27.5t-136 23.5t-105 72.5z" />
<glyph unicode="&#x2c6;" horiz-adv-x="727" d="M86 1288l252 207h199l163 -207l-157 -65l-137 129l-193 -129z" />
<glyph unicode="&#x2c7;" horiz-adv-x="727" d="M100 1430l158 65l137 -129l193 129l129 -65l-254 -207h-199z" />
<glyph unicode="&#x2d8;" horiz-adv-x="647" d="M92 1427q0 37 8 68h148q-6 -23 -6 -41q0 -47 24.5 -79t63.5 -32q43 0 85 43.5t62 108.5h148q-12 -59 -43 -109.5t-73 -87t-94.5 -57t-109.5 -20.5q-100 0 -156.5 57t-56.5 149z" />
<glyph unicode="&#x2d9;" horiz-adv-x="440" d="M92 1237l55 258h246l-53 -258h-248z" />
<glyph unicode="&#x2da;" horiz-adv-x="512" d="M92 1307q0 90 65.5 139t166.5 49q78 0 120.5 -34t42.5 -93q0 -88 -64.5 -138t-166.5 -50q-76 0 -120 34t-44 93zM211 1325q0 -27 17.5 -44t45.5 -17q35 0 66 24.5t31 61.5q0 29 -18.5 45t-47.5 16q-39 0 -66.5 -24.5t-27.5 -61.5z" />
<glyph unicode="&#x2db;" horiz-adv-x="573" d="M78 -246q0 150 295 289l71 -43q-188 -109 -188 -186q0 -66 106 -72l-86 -143q-102 16 -150 58t-48 97z" />
<glyph unicode="&#x2dc;" horiz-adv-x="858" d="M51 1227q4 18 24.5 62t57.5 88t89 78t118 34q45 0 73.5 -15.5t53.5 -33t49.5 -32.5t58.5 -15q35 0 58.5 14t38 32.5t21.5 35t7 20.5h150q-4 -14 -24.5 -57t-58.5 -88t-92 -81t-124 -36q-43 0 -74 14.5t-56.5 31.5t-50 31.5t-57.5 14.5t-54 -14.5t-33.5 -32.5t-17.5 -33.5 t-5 -17.5h-152z" />
<glyph unicode="&#x2dd;" horiz-adv-x="718" d="M45 1251l143 244h211l-217 -276zM367 1251l141 244h211l-217 -276z" />
<glyph unicode="&#x3a9;" horiz-adv-x="1671" d="M90 0v209h340q-147 84 -233 226.5t-86 322.5q0 139 53 267t146 225.5t220 155.5t277 58t276.5 -58t220 -155.5t145.5 -225.5t52 -267q0 -180 -85 -322.5t-232 -226.5h338v-209h-629v209q76 27 137.5 84t104.5 131t65.5 161t22.5 173q0 84 -29 166t-83 146.5t-131 103 t-173 38.5t-174 -38.5t-132.5 -103t-83 -146.5t-28.5 -166q0 -86 23.5 -173t66.5 -161t103.5 -131t136.5 -84v-209h-629z" />
<glyph unicode="&#x3c0;" horiz-adv-x="1460" d="M104 831v238h1162v-238h-197v-487q0 -59 28.5 -92t82.5 -33q25 0 54.5 8.5t53.5 20.5l39 -209q-55 -27 -129 -41t-135 -14q-125 0 -195.5 68.5t-70.5 195.5v583h-267v-831h-270v831h-156z" />
<glyph unicode="&#x2000;" horiz-adv-x="939" />
<glyph unicode="&#x2001;" horiz-adv-x="1878" />
<glyph unicode="&#x2002;" horiz-adv-x="1175" />
<glyph unicode="&#x2003;" horiz-adv-x="1810" />
<glyph unicode="&#x2004;" horiz-adv-x="626" />
<glyph unicode="&#x2005;" horiz-adv-x="469" />
<glyph unicode="&#x2006;" horiz-adv-x="313" />
<glyph unicode="&#x2007;" horiz-adv-x="313" />
<glyph unicode="&#x2008;" horiz-adv-x="234" />
<glyph unicode="&#x2009;" horiz-adv-x="375" />
<glyph unicode="&#x200a;" horiz-adv-x="104" />
<glyph unicode="&#x2010;" horiz-adv-x="823" d="M78 438l53 248h592l-53 -248h-592z" />
<glyph unicode="&#x2011;" horiz-adv-x="823" d="M78 438l53 248h592l-53 -248h-592z" />
<glyph unicode="&#x2012;" horiz-adv-x="823" d="M78 438l53 248h592l-53 -248h-592z" />
<glyph unicode="&#x2013;" horiz-adv-x="1191" d="M78 438l53 248h959l-52 -248h-960z" />
<glyph unicode="&#x2014;" horiz-adv-x="1822" d="M78 438l53 248h1589l-53 -248h-1589z" />
<glyph unicode="&#x2018;" horiz-adv-x="501" d="M186 969l60 280l125 246h168l-97 -250h80l-57 -276h-279z" />
<glyph unicode="&#x2019;" horiz-adv-x="483" d="M225 1026l97 250h-80l57 276h279l-60 -280l-125 -246h-168z" />
<glyph unicode="&#x201a;" horiz-adv-x="514" d="M-33 -268l103 268h-80l61 299h279l-64 -303l-127 -264h-172z" />
<glyph unicode="&#x201c;" horiz-adv-x="860" d="M186 969l60 280l125 246h168l-97 -250h80l-57 -276h-279zM547 969l59 280l123 246h170l-98 -250h82l-60 -276h-276z" />
<glyph unicode="&#x201d;" horiz-adv-x="843" d="M225 1026l99 250h-82l59 276h277l-60 -280l-123 -246h-170zM586 1026l96 250h-80l57 276h279l-59 -280l-125 -246h-168z" />
<glyph unicode="&#x201e;" horiz-adv-x="882" d="M-33 -268l103 268h-80l61 299h279l-64 -303l-127 -264h-172zM336 -268l102 268h-80l64 299h276l-65 -303l-125 -264h-172z" />
<glyph unicode="&#x2020;" horiz-adv-x="919" d="M35 432l51 246h258l193 909h260l-193 -909h256l-53 -246h-256l-148 -698h-260l148 698h-256z" />
<glyph unicode="&#x2021;" horiz-adv-x="942" d="M0 209l53 246h256l49 229h-256l52 248h258l139 655h260l-139 -655h254l-54 -248h-254l-49 -229h256l-53 -246h-256l-100 -475h-258l98 475h-256z" />
<glyph unicode="&#x2022;" horiz-adv-x="724" d="M170 678q0 51 22.5 96t58.5 80t82 55.5t93 20.5q76 0 121 -52t45 -124q0 -51 -21.5 -96.5t-58.5 -80t-83 -55t-95 -20.5q-72 0 -118 51t-46 125z" />
<glyph unicode="&#x2026;" horiz-adv-x="1214" d="M-12 0l63 295h225l-63 -295h-225zM367 0l61 295h225l-63 -295h-223zM741 0l64 295h225l-61 -295h-228z" />
<glyph unicode="&#x202f;" horiz-adv-x="375" />
<glyph unicode="&#x2030;" horiz-adv-x="2308" d="M90 96l690 674l654 700l100 -110l-674 -664l-672 -710zM193 1112q0 74 33.5 139.5t89 115.5t126 79t144.5 29q61 0 110 -19.5t85 -54.5t54.5 -82t18.5 -102q0 -74 -34 -139.5t-89 -116t-125.5 -79t-144.5 -28.5q-61 0 -110.5 19.5t-85.5 54.5t-54 82t-18 102zM385 1124 q0 -55 28.5 -94t75.5 -39q31 0 62 17.5t55.5 47t40 68.5t15.5 80q0 55 -29 94t-76 39q-31 0 -61.5 -17t-55 -47t-40 -69t-15.5 -80zM768 238q0 74 34 139t89 115.5t125.5 79t144.5 28.5q61 0 110.5 -19.5t85.5 -54t54.5 -82t18.5 -102.5q0 -74 -33 -139.5t-88.5 -115.5 t-126 -78.5t-144.5 -28.5q-61 0 -111 19t-85 54t-54.5 82t-19.5 103zM961 250q0 -55 28.5 -94t75.5 -39q31 0 61.5 17.5t55 47t40 68.5t15.5 80q0 55 -28.5 94t-75.5 39q-31 0 -62 -17.5t-55.5 -47t-39.5 -68.5t-15 -80zM1516 236q0 74 33.5 140t89 116.5t126 79t144.5 28.5 q61 0 110 -19.5t85 -54t54.5 -82t18.5 -102.5q0 -74 -33 -139.5t-88 -115.5t-125.5 -78.5t-144.5 -28.5q-61 0 -111.5 19t-85.5 54t-54 82t-19 101zM1708 250q0 -55 28.5 -94t75.5 -39q31 0 62 17.5t55.5 47t40 68.5t15.5 80q0 55 -28 94t-75 39q-31 0 -61.5 -17.5t-56 -47 t-41 -68.5t-15.5 -80z" />
<glyph unicode="&#x2039;" horiz-adv-x="706" d="M39 457l29 133l598 387l-48 -223l-346 -224l254 -211l-47 -225z" />
<glyph unicode="&#x203a;" horiz-adv-x="706" d="M6 94l47 225l344 211l-252 224l48 223l434 -387l-29 -133z" />
<glyph unicode="&#x2044;" horiz-adv-x="409" d="M-492 96l691 674l653 700l100 -110l-673 -664l-672 -710z" />
<glyph unicode="&#x205f;" horiz-adv-x="469" />
<glyph unicode="&#x20a1;" horiz-adv-x="1122" d="M37 430q0 104 33.5 202.5t95 183.5t147.5 148.5t191 96.5l55 260h127l-51 -234q18 2 36.5 3.5t37.5 1.5q10 0 21 -1t22 -1l51 231h127l-56 -254q96 -31 156 -95.5t84 -154.5l-285 -82q-18 59 -63 91t-111 32q-63 0 -123.5 -29.5t-106.5 -83t-74.5 -126t-28.5 -156.5 q0 -111 54 -180.5t144 -69.5q66 0 130.5 37t99.5 90l249 -82q-59 -90 -149 -156.5t-203 -99.5l-51 -248h-127l49 228q-10 0 -22.5 -1t-22.5 -1q-39 0 -72 6l-49 -232h-125l56 262q-123 53 -184.5 164t-61.5 250z" />
<glyph unicode="&#x20a3;" horiz-adv-x="1198" d="M-18 213l38 186h152l225 1055h932l-53 -248h-649l-80 -375h540l-51 -229h-538l-43 -203h215l-37 -186h-219l-45 -213h-281l45 213h-151z" />
<glyph unicode="&#x20a4;" horiz-adv-x="1052" d="M23 178q178 135 247 271h-215l35 169h227v15q0 37 -6 78h-200l36 170h129q-8 39 -13 75.5t-5 75.5q0 90 41 169t109.5 137.5t157.5 92t184 33.5q121 0 216 -57t148 -158l-178 -168q-35 72 -100.5 116t-135.5 44q-41 0 -76.5 -16.5t-63.5 -44t-44 -66.5t-16 -84 q0 -35 7 -71.5t17 -77.5h336l-35 -170h-268q0 -12 1 -25.5t1 -26.5v-20t-2 -21h248l-35 -169h-260q-29 -53 -77 -110.5t-124 -125.5q45 14 82 19.5t72 5.5q70 0 129 -17.5t125 -17.5q35 0 69.5 8t81.5 25l23 -205q-53 -29 -116.5 -45.5t-121.5 -16.5q-45 0 -88 9.5t-86 20.5 t-87 20.5t-91 9.5q-51 0 -123 -12.5t-137 -32.5z" />
<glyph unicode="&#x20a6;" horiz-adv-x="1685" d="M39 430l35 170h166l47 223h-164l35 168h166l98 463h219l240 -463h360l100 461h281l-98 -461h162l-35 -168h-164l-47 -223h164l-35 -170h-166l-90 -430h-230l-227 430h-371l-90 -430h-282l90 430h-164zM522 600h244l-117 223h-80zM969 823l114 -223h74l49 223h-237z" />
<glyph unicode="&#x20a9;" horiz-adv-x="2242" d="M41 436l37 170h336l-31 180h-266l35 168h202l-84 500h303l62 -500h315l-67 496h262l49 -481l254 481h260l-281 -496h318l274 500h308l-299 -500h206l-34 -168h-273l-106 -180h342l-37 -170h-408l-260 -436h-237l-103 610l-364 -610h-238l-74 436h-401zM655 786l23 -180 h194l101 180h-318zM698 436l15 -112l63 112h-78zM1335 786l25 -180h194l99 180h-318zM1384 436l17 -112l61 112h-78z" />
<glyph unicode="&#x20ac;" horiz-adv-x="1560" d="M45 496l92 151h105q2 51 12 105h-133l94 151h86q47 113 125 214.5t179.5 178t225 121.5t263.5 45q193 0 313.5 -88t159.5 -229l-250 -150q-12 61 -41 103.5t-68 67t-85 35.5t-91 11q-76 0 -142.5 -24.5t-121.5 -66.5t-99 -98t-75 -120h491l-92 -151h-452 q-6 -27 -9.5 -53.5t-5.5 -51.5h443l-92 -151h-336q29 -111 100.5 -184.5t187.5 -73.5q45 0 97.5 12t102.5 38.5t96 68.5t83 102l203 -133q-49 -82 -124 -144.5t-162 -105.5t-180 -65.5t-177 -22.5q-113 0 -202 41t-155.5 110.5t-107.5 161.5t-55 195h-203z" />
<glyph unicode="&#x20b9;" horiz-adv-x="1058" d="M129 717h227q37 0 73 20.5t66.5 56t53 83t31.5 100.5h-422l35 168h368q-16 37 -44 58.5t-60 21.5h-248l49 229h899l-35 -170h-311q39 -68 53 -139h228l-35 -168h-191q-12 -72 -42.5 -137.5t-78 -121.5t-107.5 -100.5t-130 -70.5l227 -547h-319z" />
<glyph unicode="&#x2122;" horiz-adv-x="1640" d="M260 1280l39 178h547l-39 -178h-184l-93 -438h-178l92 438h-184zM803 842l131 612h264l37 -321l176 321h264l-129 -612h-178l82 383l-186 -297h-142l-59 297l-82 -383h-178z" />
<glyph unicode="&#x2202;" horiz-adv-x="1167" d="M45 410q0 100 43 189t115.5 154.5t168 104.5t197.5 39q96 0 166 -36t105 -101q0 23 1 43t1 39q0 213 -67.5 304t-186.5 91q-66 0 -132.5 -22.5t-105.5 -61.5l-151 160q78 72 184 111.5t227 39.5q236 0 361 -162.5t125 -502.5q0 -197 -41 -349.5t-117 -257t-182.5 -158.5 t-235.5 -54q-104 0 -191 32.5t-149.5 91t-98.5 136t-36 170.5zM309 424q0 -49 17.5 -91t48.5 -73t72 -49t88 -18q53 0 101 22.5t85 59t59.5 86t22.5 104.5q0 96 -65.5 159.5t-162.5 63.5q-53 0 -101 -20.5t-85 -56.5t-58.5 -84t-21.5 -103z" />
<glyph unicode="&#x2206;" horiz-adv-x="1357" d="M0 0v213l516 1241h229l515 -1241v-213h-1260zM287 248h692l-348 893z" />
<glyph unicode="&#x220f;" horiz-adv-x="1570" d="M147 1217v237h1354v-237h-164v-1401h-266v1401h-493v-1401h-267v1401h-164z" />
<glyph unicode="&#x2211;" horiz-adv-x="1277" d="M143 0v186l439 543l-424 547v178h983v-211h-652v-8l371 -479l-403 -510v-8h700v-238h-1014z" />
<glyph unicode="&#x221a;" horiz-adv-x="1003" d="M31 584v192h405l137 -571l230 1413h246l-312 -1618h-329l-168 584h-209z" />
<glyph unicode="&#x221e;" horiz-adv-x="1474" d="M106 721q0 78 27 146.5t73 118.5t109.5 80t137.5 30q61 0 107 -14.5t82 -39t63.5 -56.5t52.5 -68q25 37 52.5 68.5t63 56t81.5 39t108 14.5q80 0 143.5 -30t107.5 -82t68.5 -120.5t24.5 -144.5q0 -78 -26.5 -146.5t-72.5 -119t-109.5 -80t-137.5 -29.5q-117 0 -184.5 47 t-114.5 113q-23 -33 -49.5 -61.5t-63.5 -50t-85 -35t-111 -13.5q-66 0 -128.5 29.5t-110.5 82t-78 120t-30 145.5zM315 721q0 -45 14.5 -77t36 -52.5t49 -29.5t56.5 -9q76 0 121 48t82 116q-37 70 -81 119t-122 49q-29 0 -56.5 -9.5t-49 -29t-36 -50t-14.5 -75.5zM848 709 q35 -66 77.5 -111t118.5 -45q57 0 106.5 39t49.5 129q0 88 -49 126t-107 38q-41 0 -70.5 -14.5t-52 -38t-40 -55.5t-33.5 -68z" />
<glyph unicode="&#x222b;" horiz-adv-x="735" d="M31 -287l47 197q27 -10 52.5 -18.5t47.5 -8.5q51 0 79 31t28 84l-1 16q-1 17 -2 37.5l-2 41t-1 32.5l-64 1137q0 20 -2 52t-4 61.5t-3 53t-1 27.5q0 104 67.5 163.5t192.5 59.5q59 0 133 -15t131 -40l-47 -197q-25 10 -52.5 18.5t-49.5 8.5q-49 0 -78 -23.5t-29 -70.5 q0 -6 1 -22.5t2 -38t3 -45t2 -40.5l64 -1138q0 -18 1 -47t2 -56.5t2 -48t1 -22.5q0 -119 -66.5 -181.5t-189.5 -62.5q-61 0 -134 15.5t-130 39.5z" />
<glyph unicode="&#x2248;" horiz-adv-x="931" d="M102 406q29 51 78 93t129 42q47 0 81 -15.5t63.5 -33t59.5 -33t67 -15.5q41 0 65.5 15.5t36.5 36.5l123 -88q-29 -49 -82 -91.5t-135 -42.5q-47 0 -82 14.5t-65.5 31t-59.5 31t-62 14.5q-41 0 -61 -15.5t-31 -34.5zM102 723q29 53 78 94t129 41q47 0 81 -15.5t63.5 -32.5 t59.5 -32.5t67 -15.5q41 0 65.5 16.5t36.5 34.5l123 -82q-29 -53 -82 -96t-135 -43q-47 0 -82 14.5t-65.5 31.5t-59.5 31.5t-62 14.5q-41 0 -61 -15.5t-31 -35.5z" />
<glyph unicode="&#x2260;" horiz-adv-x="972" d="M154 303v178h208l87 168h-295v178h385l129 256l104 -55l-102 -201h125v-178h-215l-86 -168h301v-178h-392l-127 -250l-102 53l98 197h-118z" />
<glyph unicode="&#x2264;" horiz-adv-x="976" d="M102 57v222h723v-222h-723zM104 705v188l717 338v-262l-409 -164l409 -152v-266z" />
<glyph unicode="&#x2265;" horiz-adv-x="1030" d="M162 57v222h723v-222h-723zM166 387v266l409 152l-409 164v262l717 -338v-188z" />
<glyph unicode="&#x25ca;" horiz-adv-x="1157" d="M74 750l381 745h303l381 -745l-381 -750h-303zM336 768l287 -580l272 537l-291 573z" />
<glyph unicode="&#x25fc;" horiz-adv-x="1146" d="M0 0v1147h1147v-1147h-1147z" />
<glyph unicode="&#xfb06;" horiz-adv-x="1699" d="M-61 121l143 186q162 -131 332 -131q80 0 137 33t57 98q0 29 -13 48.5t-38 32.5t-61.5 24.5t-85.5 23.5q-74 20 -131.5 40t-96.5 47.5t-59.5 68.5t-20.5 102q0 90 42 164t108.5 126t149.5 81t167 29q49 0 119 -13.5t121 -52.5q-16 59 -16 121q0 70 23.5 135.5t76.5 116.5 t138 80.5t208 29.5q82 0 136.5 -14t87 -42t46 -66.5t13.5 -90.5q0 -47 -8.5 -103t-22.5 -122h213l-45 -211h-213l-111 -524q-4 -10 -4 -17.5v-13.5q0 -41 20.5 -57.5t57.5 -16.5q39 0 83 14.5t73 24.5v-217q-61 -25 -145.5 -49t-164.5 -24q-96 0 -159.5 43t-63.5 145 q0 20 4 46t11 54l124 592h-133l45 211h134q12 66 19 115t7 86q0 63 -25.5 89t-84.5 26q-113 0 -168.5 -71t-55.5 -171q0 -57 14.5 -109.5t28.5 -72.5l-143 -172q-72 59 -137.5 82.5t-124.5 23.5q-76 0 -133.5 -32.5t-57.5 -104.5q0 -66 51.5 -87.5t157.5 -43.5 q76 -16 133.5 -37t95 -49.5t57 -70.5t19.5 -101q0 -90 -38.5 -163t-105.5 -124t-155 -78.5t-188 -27.5q-63 0 -128 11t-123 29.5t-107.5 44t-85.5 56.5z" />
<glyph horiz-adv-x="1173" d="M-113 0l717 1145h203l227 -1145h-260l-49 268h-412l-161 -268h-265zM414 483h299l-72 361z" />
<glyph horiz-adv-x="1179" d="M8 0l242 1145h647q53 0 94 -20.5t68.5 -54.5t41 -78t13.5 -89q0 -49 -16.5 -96t-47 -89t-73.5 -76t-96 -54q80 -25 124 -84.5t44 -147.5q0 -90 -38 -156.5t-102.5 -110.5t-148.5 -66.5t-174 -22.5h-578zM299 209h330q68 0 121 46t53 114q0 47 -29 79.5t-76 32.5h-342z M397 676h297q63 0 112.5 39t49.5 116q0 47 -27.5 74t-70.5 27h-305z" />
<glyph horiz-adv-x="1167" d="M47 483q0 117 53.5 237t148.5 215t226 155.5t287 60.5q162 0 266.5 -68.5t136.5 -181.5l-217 -133q-10 47 -35.5 78t-58.5 49t-71 26.5t-74 8.5q-94 0 -169 -40t-128.5 -101.5t-82 -137.5t-28.5 -149q0 -59 17.5 -111.5t50 -92.5t81 -63.5t111.5 -23.5q76 0 163 38 t144 128l179 -121q-41 -63 -104.5 -113.5t-136.5 -84t-150.5 -51t-149.5 -17.5q-109 0 -195 42t-144 110.5t-89 157.5t-31 183z" />
<glyph horiz-adv-x="1255" d="M8 0l242 1145h444q125 0 218.5 -36t154.5 -97.5t91 -144.5t30 -177q0 -152 -56.5 -277.5t-154.5 -218t-232.5 -143.5t-291.5 -51h-445zM299 217h199q100 0 180 35t136 94.5t87 138t31 166.5q0 123 -72 200t-211 77h-198z" />
<glyph horiz-adv-x="1056" d="M8 0l242 1145h829l-45 -217h-583l-52 -244h504l-43 -203h-502l-59 -264h598l-45 -217h-844z" />
<glyph horiz-adv-x="1013" d="M8 0l242 1145h817l-47 -217h-569l-56 -266h473l-43 -203h-473l-98 -459h-246z" />
<glyph horiz-adv-x="1417" d="M78 600q0 160 65.5 314.5t180 276.5t268 197.5t332.5 75.5q176 0 294.5 -80.5t167.5 -224.5l-262 -176q-8 31 -25.5 71t-49 75.5t-79.5 60t-118 24.5q-106 0 -195.5 -55t-155 -142t-102.5 -194.5t-37 -212.5q0 -70 16.5 -136t51.5 -118.5t88 -84t127 -31.5 q63 0 124.5 23.5t114 63.5t94.5 90t66 105h-290l51 246h598l-33 -137q-31 -129 -101.5 -246t-170 -205t-222.5 -139t-258 -51q-129 0 -229 50t-169.5 134t-105.5 194.5t-36 231.5z" />
<glyph horiz-adv-x="1222" d="M49 479q0 135 58.5 257t156.5 215t225 147.5t267 54.5q160 0 263 -67.5t138 -182.5l-217 -139q-23 80 -88.5 124t-153.5 44q-82 0 -153.5 -36t-125.5 -96.5t-86 -139t-32 -164.5q0 -61 17.5 -112.5t51 -89.5t82 -59.5t107.5 -21.5q78 0 159 37t159 108l12 56h-240l39 180 h445l-127 -594h-205l24 119q-82 -66 -164.5 -96.5t-168.5 -30.5q-100 0 -181.5 40t-139.5 106.5t-90 154.5t-32 186z" />
<glyph horiz-adv-x="1302" d="M8 0l242 1145h248l-97 -451h531l96 451h248l-244 -1145h-248l103 475h-531l-102 -475h-246z" />
<glyph horiz-adv-x="524" d="M8 0l242 1145h248l-244 -1145h-246z" />
<glyph horiz-adv-x="876" d="M-86 51l100 203q18 -16 70.5 -33.5t124.5 -17.5q70 0 116 21.5t76.5 65.5t51 112.5t41.5 160.5l124 582h246l-123 -582q-29 -131 -65.5 -238.5t-100 -183t-162.5 -116.5t-249 -41q-158 0 -250 67z" />
<glyph horiz-adv-x="1173" d="M8 0l242 1145h248l-115 -535l623 535h258l-570 -510l357 -635h-263l-272 496l-188 -152l-74 -344h-246z" />
<glyph horiz-adv-x="952" d="M8 0l242 1145h248l-199 -928h549l-47 -217h-793z" />
<glyph horiz-adv-x="1501" d="M8 0l242 1145h268l215 -619l477 619h267l-244 -1145h-248l154 715l-412 -525h-133l-188 525l-152 -715h-246z" />
<glyph horiz-adv-x="1329" d="M8 0l242 1145h192l465 -705l150 705h246l-244 -1145h-199l-461 686l-145 -686h-246z" />
<glyph horiz-adv-x="1288" d="M47 475q0 129 58.5 251t157.5 216t228.5 151.5t270.5 57.5q111 0 196.5 -41t144 -108.5t89.5 -154.5t31 -181q0 -129 -58.5 -250t-157 -215.5t-227.5 -151.5t-270 -57q-111 0 -197 40t-145 107.5t-90 154.5t-31 181zM301 500q0 -57 16.5 -109.5t48 -92.5t79.5 -63.5 t114 -23.5q92 0 168 40t129 102.5t83 139t30 150.5q0 57 -16.5 109.5t-49.5 91.5t-81 62.5t-111 23.5q-92 0 -167 -39t-129.5 -100.5t-84 -138.5t-29.5 -152z" />
<glyph horiz-adv-x="1095" d="M8 0l242 1145h514q74 0 133 -27.5t99 -73t61.5 -104.5t21.5 -121q0 -82 -36.5 -161.5t-100 -142t-149.5 -101.5t-183 -39h-276l-80 -375h-246zM379 592h262q37 0 69.5 14.5t58.5 40t41 63.5t15 85q0 66 -35.5 99.5t-87.5 33.5h-251z" />
<glyph horiz-adv-x="1290" d="M45 475q0 129 59.5 251t157.5 217t227 152.5t271 57.5q111 0 196.5 -41t144 -108.5t89.5 -155.5t31 -182q0 -135 -63.5 -261t-170.5 -223l131 -182h-235l-54 74q-74 -39 -154.5 -60.5t-166.5 -21.5q-111 0 -197 40t-145.5 107.5t-90 154.5t-30.5 181zM299 500 q0 -57 16.5 -108.5t48 -91.5t80.5 -63.5t115 -23.5q82 0 150 31l-142 196h236l57 -80q51 61 80 136t29 149q0 57 -16.5 108.5t-49.5 91.5t-81 63.5t-111 23.5q-92 0 -168 -39t-130.5 -101.5t-84 -139.5t-29.5 -152z" />
<glyph horiz-adv-x="1177" d="M8 0l242 1145h538q74 0 133.5 -27.5t99.5 -73t61.5 -104.5t21.5 -121q0 -61 -21.5 -120.5t-60.5 -110.5t-92 -93t-117 -67l193 -428h-281l-172 375h-219l-80 -375h-246zM379 592h287q35 0 68.5 15.5t59 43t41 64.5t15.5 78q0 59 -35 97t-88 38h-276z" />
<glyph horiz-adv-x="1056" d="M-49 131l153 215q14 -20 47 -45t81.5 -45t108.5 -33.5t128 -13.5q92 0 141 30.5t49 88.5q0 29 -19 48t-54 34.5t-83 30t-106 32.5q-133 41 -199.5 98.5t-66.5 159.5q0 100 43 179t114.5 132.5t165 82t193.5 28.5q123 0 222.5 -39t164.5 -88l-149 -203q-12 14 -39 34 t-66 36t-87 28.5t-99 12.5q-98 0 -146.5 -34t-48.5 -93q0 -51 59.5 -75.5t170.5 -55.5q70 -20 127 -44t98 -55.5t62.5 -75.5t21.5 -106q0 -111 -45 -188.5t-118 -126.5t-167 -71.5t-192 -22.5q-131 0 -254 38.5t-211 106.5z" />
<glyph horiz-adv-x="1083" d="M102 928l45 217h1010l-45 -217h-379l-198 -928h-248l198 928h-383z" />
<glyph horiz-adv-x="1284" d="M90 391q0 82 19 168l122 586h248l-123 -586q-6 -31 -10 -60.5t-4 -58.5q0 -96 48 -162.5t167 -66.5q80 0 139.5 29.5t101.5 79t68.5 112t40.5 127.5l123 586h248l-123 -586q-25 -119 -77 -222.5t-132 -180t-189.5 -120.5t-246.5 -44q-115 0 -194.5 30.5t-130 84t-73 127 t-22.5 157.5z" />
<glyph horiz-adv-x="1169" d="M115 1145h262l147 -797l480 797h262l-713 -1145h-209z" />
<glyph horiz-adv-x="2168" d="M186 1454h318l69 -1032l525 1032h307l92 -1030l506 1030h319l-741 -1454h-293l-135 993l-551 -993h-293z" />
<glyph horiz-adv-x="1818" d="M113 1145h268l166 -848l196 317l-92 527h230l53 -371l213 371h229l-317 -527l65 -317l525 848h270l-735 -1145h-207l-109 461l-301 -461h-209z" />
<glyph horiz-adv-x="1134" d="M-111 0l537 565l-307 580h270l205 -406l377 406h268l-551 -580l295 -565h-268l-195 389l-358 -389h-273z" />
<glyph horiz-adv-x="1120" d="M106 1145h269l174 -535l405 535h271l-596 -750l-86 -395h-246l84 397z" />
<glyph horiz-adv-x="1101" d="M-63 0l38 186l826 742h-647l47 217h936l-41 -187l-803 -741h651l-47 -217h-960z" />
<glyph horiz-adv-x="1255" d="M31 420q0 135 49 257t131 214t188.5 146.5t221.5 54.5q113 0 189.5 -56.5t104.5 -152.5l39 176h275l-225 -1059h-275l37 174q-68 -92 -155.5 -143t-198.5 -51q-90 0 -161 33.5t-120 93t-74.5 139.5t-25.5 174zM319 463q0 -106 56.5 -178t154.5 -72q84 0 155 49t126 131 l55 254q-14 94 -70.5 152.5t-138.5 58.5q-66 0 -126 -35t-107 -91t-76 -126.5t-29 -142.5z" />
<glyph horiz-adv-x="1114" d="M-20 258q0 96 43 172t115.5 128t165.5 80t194 28q78 0 138 -14.5t95 -33.5l14 62q6 37 7 65q0 74 -45 115t-138 41q-82 0 -166 -30.5t-180 -90.5l-45 174q111 66 224.5 102t234.5 36q193 0 291 -84t98 -238q0 -29 -3 -58.5t-11 -62.5l-138 -649h-264l31 150 q-76 -86 -172.5 -128t-202.5 -42q-66 0 -118 21.5t-90 58t-58 88t-20 110.5zM250 313q0 -59 39 -96t98 -37q55 0 117.5 22.5t109.5 67.5q23 18 38.5 38t19.5 40l26 123q-43 20 -92 30.5t-96 10.5t-93 -12.5t-83 -38t-60.5 -62.5t-23.5 -86z" />
<glyph horiz-adv-x="1863" d="M31 430q0 123 48 242t137 212t214 150.5t279 57.5q94 0 152.5 -20.5t111.5 -61.5q-8 25 -13.5 59.5t-5.5 65.5q0 172 113 274t324 102q88 0 145 -17t90 -47t46.5 -71t13.5 -90q0 -47 -9.5 -101.5t-21.5 -111.5h213l-45 -211h-213l-111 -524q-4 -10 -4 -17.5v-15.5 q0 -39 21.5 -55.5t56.5 -16.5q39 0 83 13.5t73 25.5v-217q-59 -25 -142.5 -49t-167.5 -24q-96 0 -159.5 44t-63.5 144q0 41 8 76l131 616h-131l45 211h131q12 55 19.5 102.5t7.5 84.5q0 63 -26.5 96t-96.5 33q-61 0 -103 -25t-66.5 -64.5t-36 -91t-11.5 -102.5q0 -39 5 -82 t12.5 -82t14.5 -71.5t11 -53.5l-285 -82q-43 123 -178 123q-66 0 -126 -32.5t-106 -88t-73 -127t-27 -147.5q0 -109 54.5 -179.5t146.5 -70.5q59 0 126 34t103 93l250 -82q-84 -127 -223 -202.5t-305 -75.5q-109 0 -189.5 36.5t-136 98t-83 143.5t-27.5 172z" />
<glyph horiz-adv-x="1253" d="M31 420q0 133 48 255t129 214t187.5 147.5t220.5 55.5q115 0 190 -57.5t107 -149.5l131 610h275l-318 -1495h-274l35 168q-68 -90 -156 -139t-194 -49q-90 0 -161 33.5t-120 93t-74.5 140.5t-25.5 173zM319 465q0 -109 57.5 -180.5t155.5 -71.5q37 0 77 13.5t78 38 t69.5 57t54.5 71.5l53 256q-6 45 -24.5 84t-47 66.5t-64.5 43t-75 15.5q-66 0 -126 -35t-106 -90t-74 -125.5t-28 -142.5z" />
<glyph horiz-adv-x="1193" d="M43 362q0 80 27.5 145.5t70.5 118t95.5 90.5t99.5 62q-53 29 -85 89.5t-32 131.5q0 106 53.5 191.5t135 144t179 89t185.5 30.5q72 0 141.5 -21.5t125 -64.5t89 -105.5t33.5 -144.5q0 -59 -20.5 -111.5t-54 -96.5t-76.5 -77.5t-88 -54.5q59 -37 103 -110.5t44 -171.5 q0 -113 -51 -207t-137 -163t-196 -106.5t-226 -37.5q-90 0 -167 27.5t-132.5 78.5t-86 121t-30.5 153zM330 408q0 -80 54 -129.5t130 -49.5q49 0 99.5 19.5t89 54.5t63.5 82t25 102q0 84 -54.5 130.5t-132.5 46.5q-51 0 -100 -19.5t-88 -53.5t-62.5 -81t-23.5 -102z M498 1012q0 -70 47 -106t104 -36q37 0 77 13.5t72.5 40t54 63.5t21.5 86q0 63 -44 100t-109 37q-43 0 -83 -14t-70.5 -41t-50 -63.5t-19.5 -79.5z" />
<glyph horiz-adv-x="1120" d="M-10 233l192 164q37 -80 105.5 -127t154.5 -47q59 0 111.5 22.5t92.5 62.5t62.5 93.5t22.5 116.5q0 84 -45 135.5t-123 51.5q-61 0 -120.5 -31t-102.5 -84h-238q18 41 46 112.5t61 156.5t68.5 175t68.5 173t58.5 147.5t39.5 99.5h684l-55 -250h-483l-121 -325 q29 29 74 45t108 16q84 0 151.5 -27.5t116 -77t75 -119t26.5 -151.5q0 -127 -51 -233.5t-137.5 -185t-200 -122.5t-240.5 -44q-152 0 -257 67.5t-144 185.5z" />
<glyph horiz-adv-x="1153" d="M-6 330l53 245l844 879h188l-186 -876h172l-51 -248h-172l-70 -330h-274l69 330h-573zM324 578h325l101 462z" />
<glyph horiz-adv-x="518" d="M-100 -436l317 1495h275l-318 -1495h-274zM252 1223l55 264h275l-58 -264h-272z" />
<glyph horiz-adv-x="530" d="M-4 0l317 1495h275l-318 -1495h-274z" />
<glyph horiz-adv-x="1212" d="M51 211l195 172q29 -78 92 -121t147 -43q127 0 224.5 108.5t144.5 307.5q-57 -74 -139 -117t-176 -43q-88 0 -161 31t-124 84t-79 125.5t-28 156.5q0 119 52.5 226.5t139.5 189.5t199.5 129t235.5 47q190 0 292.5 -127t102.5 -352q0 -207 -54 -389t-151.5 -319.5 t-232.5 -217t-299 -79.5q-131 0 -228.5 60t-152.5 171zM418 911q0 -92 53 -154.5t139 -62.5q57 0 112.5 25.5t98.5 68.5t70 100.5t27 121.5q0 45 -14.5 86t-40 71.5t-60.5 49t-78 18.5q-57 0 -112.5 -26.5t-98.5 -71.5t-69.5 -103.5t-26.5 -122.5z" />
<glyph horiz-adv-x="970" d="M0 0l53 248h271l200 946q-20 -25 -63 -54.5t-94.5 -57t-103.5 -46t-91 -18.5l53 254q51 0 113.5 29.5t116 65.5t89.5 66.5t38 34.5h280l-258 -1220h246l-51 -248h-799z" />
<glyph horiz-adv-x="1251" d="M31 414q0 139 51 262t136 215t195.5 146.5t227.5 54.5t194.5 -56.5t112.5 -148.5l39 186h240l-320 -1509h-274l131 624q-78 -104 -177.5 -156t-211.5 -52q-82 0 -145.5 33.5t-107.5 92t-67.5 137.5t-23.5 171zM317 461q0 -106 55.5 -177t153.5 -71q80 0 151 49t130 127 l55 254q-4 45 -21.5 84t-45 68.5t-63.5 46t-75 16.5q-66 0 -127 -33.5t-108 -89t-76 -127t-29 -147.5z" />
<glyph horiz-adv-x="1118" d="M-12 0l819 1204h-617l56 250h1046l-995 -1454h-309z" />
<glyph horiz-adv-x="1212" d="M88 459q0 207 54.5 390t151.5 319.5t233.5 216t299.5 79.5q129 0 227.5 -59t151.5 -170l-192 -172q-31 78 -94.5 121t-147.5 43q-125 0 -223 -108.5t-146 -307.5q57 74 139.5 117t176.5 43q88 0 160.5 -31t124 -84t79 -126t27.5 -157q0 -121 -52 -228t-139.5 -188 t-200 -129t-235.5 -48q-190 0 -292.5 128t-102.5 351zM342 436q0 -94 53.5 -159.5t139.5 -65.5q55 0 110 26.5t99 71.5t71 103.5t27 122.5q0 92 -53.5 154.5t-139.5 62.5q-57 0 -112.5 -26t-98.5 -69t-69.5 -100t-26.5 -121z" />
<glyph horiz-adv-x="763" d="M76 0l176 825h-154l54 248h151l74 348h282l-73 -348h235l-51 -248h-238l-174 -825h-282z" />
<glyph horiz-adv-x="1148" d="M4 266l184 180q2 -31 14.5 -68.5t42 -69.5t77 -53.5t116.5 -21.5q57 0 110.5 15.5t93.5 45.5t64.5 69.5t24.5 89.5q0 94 -89 138t-263 44h-64l47 229h66q84 0 157.5 13.5t128 41t85 69.5t30.5 97q0 78 -49 112t-114 34q-55 0 -104.5 -15.5t-91.5 -40t-73.5 -54 t-50.5 -56.5l-135 199q45 49 105.5 88t128 65.5t138 41t138.5 14.5q92 0 168 -26t130 -71t82.5 -108.5t28.5 -137.5q0 -135 -90 -233t-243 -133q104 -20 161.5 -103t57.5 -200q0 -119 -56.5 -209t-145.5 -149.5t-200 -90t-217 -30.5q-170 0 -271 73.5t-122 210.5z" />
<glyph horiz-adv-x="1202" d="M-43 0q31 141 70 246.5t97 185.5t138 139.5t193 110.5q78 37 153.5 69.5t136 75.5t97.5 100.5t37 141.5q0 72 -40 114t-118 42q-53 0 -104.5 -16.5t-98.5 -42t-89 -56.5t-73 -59l-133 180q35 33 92.5 75t133 78.5t167 62.5t193.5 26q193 0 290 -97.5t97 -253.5 q0 -115 -31.5 -196.5t-90 -145t-139.5 -113t-177 -94.5q-154 -74 -244 -146.5t-113 -178.5h619l-51 -248h-1012z" />
<glyph horiz-adv-x="1705" d="M111 1073h282l70 -745l352 745h260l35 -745l385 745h283l-578 -1073h-307l-39 647l-326 -647h-295z" />
<glyph horiz-adv-x="1064" d="M14 -436q16 27 43 72t61 102t72.5 124.5t81.5 137.5l-172 1073h293l80 -835l412 835h256l-809 -1509h-318z" />
<glyph horiz-adv-x="1384" d="M90 569q0 152 61.5 308.5t168 284.5t248 210t300.5 82q123 0 212 -54t145.5 -139t83 -191.5t26.5 -211.5q0 -152 -61.5 -307.5t-167 -282.5t-247.5 -207.5t-302 -80.5q-123 0 -211 53t-145.5 137t-84 189.5t-26.5 209.5zM377 559q0 -66 13 -125t41 -105t72 -73t105 -27 q100 0 182 62.5t139.5 155t88.5 200t31 197.5q0 68 -13.5 132t-42 115.5t-71.5 82t-105 30.5q-104 0 -185 -66.5t-138.5 -165t-87 -210t-29.5 -203.5z" />
</font>
</defs>
</svg>
