<?xml version="1.0" standalone="no"?>
<!DOCTYPE svg PUBLIC "-//W3C//DTD SVG 1.1//EN" "http://www.w3.org/Graphics/SVG/1.1/DTD/svg11.dtd" >
<svg xmlns="http://www.w3.org/2000/svg" xmlns:xlink="http://www.w3.org/1999/xlink" version="1.1">
<metadata></metadata>
<defs>
<font id="ralewaylight" horiz-adv-x="1253" >
<font-face units-per-em="2048" ascent="1638" descent="-410" />
<missing-glyph horiz-adv-x="526" />
<glyph unicode="&#xfb00;" horiz-adv-x="1157" d="M57 981v84h150v16q0 66 18.5 129.5t57.5 113.5t98 81t141 31q72 0 129.5 -17.5t89.5 -38.5q43 61 106.5 98.5t160.5 37.5q49 0 83.5 -9.5t58.5 -20.5t38 -22.5t20 -15.5l-37 -74q-16 14 -47.5 31.5t-97.5 17.5q-74 0 -124 -29.5t-80.5 -75.5t-44 -103.5t-13.5 -112.5v-37 h352v-84h-352v-981h-102v981h-353v-981h-102v981h-150zM309 1065h353q0 68 10 128t35 107q-35 27 -84.5 35t-83.5 8q-68 0 -112 -24.5t-69.5 -62t-37 -84t-11.5 -89.5v-18z" />
<glyph unicode="&#xfb01;" horiz-adv-x="991" d="M57 981v84h150v35q0 70 20.5 144.5t63.5 134t111.5 98.5t164.5 39q55 0 103.5 -10.5t85.5 -24t61.5 -28.5t34.5 -23l-51 -72q-29 27 -90.5 46t-139.5 19q-70 0 -120 -29.5t-81.5 -75.5t-46 -103.5t-14.5 -112.5v-37h522v-1065h-102v981h-420v-981h-102v981h-150z" />
<glyph unicode="&#xfb02;" horiz-adv-x="1150" d="M57 981v84h150v41q0 88 20.5 162.5t63.5 130t108.5 86.5t155.5 31q82 0 145.5 -23t106.5 -62.5t64.5 -94t21.5 -117.5v-1010q0 -43 28.5 -85t88.5 -42q41 0 80.5 10t42.5 10l22 -86q0 -2 -16.5 -6t-41 -9t-55 -9t-61.5 -4q-92 0 -141 55t-49 129v1030q0 39 -12.5 79 t-40 71.5t-72.5 51t-111 19.5t-112 -27.5t-75.5 -72.5t-44 -103.5t-14.5 -121.5v-33h238v-84h-238v-981h-102v981h-150z" />
<glyph unicode="&#xfb03;" horiz-adv-x="1445" d="M57 981v84h150v16q0 63 18.5 126t57.5 114t98 83t143 32q72 0 128.5 -17.5t88.5 -38.5q45 61 114 98.5t167 37.5q53 0 99 -10.5t83 -24t63.5 -28.5t39.5 -23l-54 -72q-27 25 -89 45t-132 20q-74 0 -125 -29.5t-82.5 -75.5t-46 -103.5t-14.5 -112.5v-37h522v-1065h-102 v981h-420v-981h-102v981h-353v-981h-102v981h-150zM309 1065h353q0 66 10 127t35 108q-35 27 -84.5 35t-83.5 8q-68 0 -112 -25.5t-69.5 -63t-37 -84t-11.5 -89.5v-16z" />
<glyph unicode="&#xfb04;" horiz-adv-x="1613" d="M57 981v84h150v14q0 74 21.5 138.5t62.5 112.5t103.5 77t142.5 29q74 0 122 -17.5t80 -36.5q43 63 112 98.5t167 35.5q82 0 144.5 -23t105.5 -62.5t64.5 -94t21.5 -117.5v-1010q0 -43 28.5 -85t90.5 -42q18 0 38.5 3t38 7t29.5 7t14 3l25 -86q0 -2 -16.5 -6t-41 -9 t-54 -9t-56.5 -4q-98 0 -148.5 55t-50.5 129v1030q0 41 -13 81t-41 70.5t-71 50t-102 19.5q-70 0 -118 -28.5t-77.5 -74.5t-43 -105.5t-13.5 -120.5v-29h236v-84h-236v-981h-102v981h-361v-981h-102v981h-150zM309 1065h361q0 74 8 135.5t27 102.5q-35 27 -76 33.5t-76 6.5 q-66 0 -112 -23.5t-75.5 -60t-43 -84t-13.5 -94.5v-16z" />
<glyph horiz-adv-x="0" />
<glyph unicode="&#xd;" horiz-adv-x="0" />
<glyph unicode=" "  horiz-adv-x="526" />
<glyph unicode="&#x09;" horiz-adv-x="526" />
<glyph unicode="&#xa0;" horiz-adv-x="526" />
<glyph unicode="!" horiz-adv-x="497" d="M197 0v209h104v-209h-104zM197 446v1022h104v-1022h-104z" />
<glyph unicode="&#x22;" horiz-adv-x="540" d="M143 1106v356h93v-356h-93zM305 1106v356h90v-356h-90z" />
<glyph unicode="#" horiz-adv-x="1370" d="M78 434v84h250l106 436h-272v80h293l100 420h90l-102 -420h426l100 420h90l-102 -420h235v-80h-256l-104 -436h274v-84h-295l-106 -434h-90l108 434h-426l-106 -434h-90l108 434h-231zM416 518h428l104 436h-426z" />
<glyph unicode="$" horiz-adv-x="1263" d="M86 205l55 84q84 -88 203 -143.5t266 -65.5v604q-115 25 -204 52.5t-148 69.5t-90 101.5t-31 149.5q0 92 34 165.5t95.5 125t148.5 81t191 33.5v207h64v-205q135 -4 241.5 -46t192.5 -124l-53 -82q-139 156 -387 158v-596h6q117 -25 212 -54.5t161.5 -74.5t102.5 -110.5 t36 -161.5t-37 -168t-104.5 -120t-162 -72.5t-208.5 -24.5v-191h-64v193q-305 16 -520 215zM244 1071q0 -66 20.5 -109.5t65.5 -75.5t114.5 -55.5t165.5 -44.5v582q-193 -8 -279.5 -88t-86.5 -209zM664 80h2q190 0 297.5 69.5t107.5 210.5q0 68 -25.5 117t-75.5 85 t-127 61.5t-179 50.5v-594z" />
<glyph unicode="%" horiz-adv-x="1429" d="M88 1184q0 61 23.5 113.5t63.5 92.5t94.5 62.5t115.5 22.5t115.5 -22.5t94.5 -62.5t63.5 -92.5t23.5 -113.5q0 -59 -23.5 -112.5t-63.5 -92.5t-94.5 -61.5t-115.5 -22.5t-115.5 22.5t-94.5 61.5t-63.5 92t-23.5 113zM121 43l571 705l561 712l58 -47l-572 -706l-563 -713z M170 1184q0 -47 17.5 -87t46 -71t68.5 -48t83 -17q45 0 85 18t68.5 49t46 72t17.5 84q0 47 -17.5 88t-48 71.5t-69.5 48t-82 17.5q-45 0 -84 -18.5t-68.5 -49t-46 -71.5t-16.5 -86zM748 270q0 59 23.5 112.5t63 92.5t94 61.5t115.5 22.5t115.5 -22.5t94.5 -61.5t63.5 -92 t23.5 -113q0 -61 -23.5 -113.5t-63.5 -92t-94.5 -62t-115.5 -22.5t-115.5 22.5t-94 62t-63 92t-23.5 113.5zM829 270q0 -47 16.5 -88t46.5 -71.5t68.5 -48t83.5 -17.5t85 18.5t69 49t46.5 71.5t17.5 86t-17.5 86t-48.5 72t-70 48.5t-82 17.5q-45 0 -83.5 -18.5t-68.5 -49.5 t-46.5 -72t-16.5 -84z" />
<glyph unicode="&#x26;" horiz-adv-x="1341" d="M100 365q0 74 26 136t70 114.5t102 99.5t124 90q-57 61 -97 111.5t-64.5 91.5t-36 78.5t-11.5 74.5q0 63 27.5 119.5t74.5 99.5t113 68t141 25q70 0 129.5 -21.5t103.5 -58.5t68.5 -88.5t24.5 -110.5q0 -61 -26.5 -115.5t-72.5 -102.5t-106.5 -92t-126.5 -89l438 -455 q45 80 70 175t25 198h90q-4 -246 -123 -439l264 -274h-137l-186 195q-84 -98 -197 -156.5t-250 -58.5q-90 0 -173 26.5t-146.5 76.5t-100.5 120.5t-37 161.5zM201 360q0 -74 32.5 -129t85 -93t118.5 -56.5t132 -18.5q117 0 211 52.5t164 140.5l-463 485q-59 -41 -109 -82 t-89 -87t-60.5 -98t-21.5 -114zM309 1163q0 -27 7.5 -53.5t29 -61t59 -80.5t97.5 -110q135 88 217 163t82 169q0 86 -65.5 142.5t-168.5 56.5q-55 0 -102 -18.5t-82 -49.5t-54.5 -72t-19.5 -86z" />
<glyph unicode="'" horiz-adv-x="378" d="M143 1104v358h93v-358h-93z" />
<glyph unicode="(" horiz-adv-x="524" d="M94 707q0 104 22.5 205.5t60.5 199.5t89 195.5t109 195.5l80 -41q-45 -66 -92.5 -157t-85 -193t-62.5 -208.5t-25 -203.5q0 -160 70 -349t195 -374l-78 -45q-131 193 -207 387.5t-76 387.5z" />
<glyph unicode=")" horiz-adv-x="522" d="M68 1462l79 41q57 -98 108.5 -195.5t90.5 -195.5t60.5 -199.5t21.5 -205.5q0 -193 -74.5 -387.5t-206.5 -387.5l-77 45q123 184 192.5 374t69.5 349q0 96 -24.5 203t-63.5 209t-85 193.5t-91 156.5z" />
<glyph unicode="*" horiz-adv-x="643" d="M131 1300l19 60l139 -49v147h63v-147l142 49l18 -60l-139 -45l88 -122l-53 -37l-86 125l-86 -125l-52 37l86 122z" />
<glyph unicode="+" horiz-adv-x="847" d="M109 684v86h268v289h94v-289h266v-86h-266v-289h-94v289h-268z" />
<glyph unicode="," horiz-adv-x="487" d="M193 -4v178h104v-178l-43 -162h-55l30 162h-36z" />
<glyph unicode="-" horiz-adv-x="864" d="M137 510v94h590v-94h-590z" />
<glyph unicode="." horiz-adv-x="362" d="M137 0v174h90v-174h-90z" />
<glyph unicode="/" horiz-adv-x="1185" d="M55 0l955 1454h118l-956 -1454h-117z" />
<glyph unicode="0" horiz-adv-x="1388" d="M102 717q0 131 41 263t118 237.5t186.5 171t246.5 65.5q147 0 258 -70.5t184.5 -179t111.5 -238.5t38 -249q0 -133 -41 -264t-117.5 -235.5t-186.5 -170t-247 -67.5q-147 4 -257.5 73.5t-184.5 176t-112 235.5t-38 252zM207 717q4 -113 36.5 -226.5t93 -205.5t151 -150.5 t206.5 -58.5q123 0 214 61.5t151.5 156.5t91.5 207.5t31 215.5q0 113 -33 226.5t-96.5 205.5t-153.5 150.5t-205 58.5q-123 0 -214 -62.5t-152.5 -157t-91 -208t-29.5 -213.5z" />
<glyph unicode="1" horiz-adv-x="806" d="M84 1176v96q53 0 109.5 29.5t103.5 66.5t76.5 68.5t32.5 36.5h102v-1379h260v-94h-637v94h275v1258q-16 -25 -53.5 -54.5t-83.5 -57.5t-95 -46t-90 -18z" />
<glyph unicode="2" horiz-adv-x="1175" d="M100 0v39q0 131 29 229.5t81 172t127 127t165 94.5q72 33 150.5 63.5t144 72.5t108.5 103.5t43 157.5q0 61 -20.5 118.5t-62.5 101.5t-106.5 70.5t-152.5 26.5q-86 0 -153.5 -23.5t-119.5 -57t-88 -71.5t-59 -69l-69 64q6 10 41 51t97 86t152.5 81t208.5 36 q111 0 195 -35t139.5 -92.5t83 -132t27.5 -154.5q0 -109 -45 -184.5t-115 -129t-150.5 -89t-154.5 -62.5q-123 -47 -196.5 -106.5t-112.5 -126t-51.5 -135t-12.5 -132.5h840v-94h-963z" />
<glyph unicode="3" horiz-adv-x="1196" d="M102 336l70 47q4 -59 37 -114.5t88 -97.5t130 -67.5t165 -25.5q84 0 155.5 22.5t124 63.5t82 96t29.5 123q0 72 -34 130t-96 98t-151.5 61.5t-197.5 21.5h-72v92h72q211 0 325.5 71t114.5 208q0 70 -28.5 127t-79 99t-118 64.5t-145.5 22.5q-137 0 -237 -60.5 t-141 -156.5l-76 66q27 57 73 102t106 77t130 49.5t145 17.5q102 0 190.5 -31t152 -85t99.5 -128t36 -160q0 -127 -74 -209t-215 -117q74 -14 134 -47.5t103 -83t67 -111t24 -128.5q0 -88 -40 -160t-108 -123t-158 -79.5t-192 -28.5q-100 0 -186.5 25.5t-151 72.5 t-104 112.5t-48.5 143.5z" />
<glyph unicode="4" horiz-adv-x="1150" d="M51 406v90l774 958h72v-954h180v-94h-180v-406h-102v406h-744zM168 500h635v790z" />
<glyph unicode="5" horiz-adv-x="1134" d="M86 266l76 43q55 -106 159.5 -170.5t229.5 -64.5q82 0 153.5 27.5t124 78.5t83 122t30.5 155q0 82 -29.5 149.5t-81 116.5t-120 76.5t-148.5 27.5q-104 0 -195.5 -46t-150.5 -132h-100q2 14 11 57.5t20.5 102.5t25.5 130t29 142q35 168 76 373h696v-96h-619l-112 -576 q59 66 145 102t184 36t184.5 -34t151 -95.5t101.5 -146.5t37 -185q0 -109 -40 -197t-108 -150.5t-158 -97t-190 -34.5q-156 0 -278.5 78.5t-186.5 207.5z" />
<glyph unicode="6" horiz-adv-x="1228" d="M111 571q0 229 38.5 397.5t108.5 279t167 163.5t214 53q147 0 261 -75.5t169 -206.5l-72 -56q-41 111 -139 178.5t-219 67.5q-96 0 -175 -46t-134.5 -135t-87 -218t-31.5 -295q23 66 65.5 120t99 93t124 60.5t141.5 21.5q104 0 194.5 -39t158 -106.5t106.5 -158 t39 -192.5q0 -104 -39 -194t-108.5 -158t-163 -106.5t-199.5 -38.5q-113 0 -208 40.5t-164 116.5t-107.5 185.5t-38.5 248.5zM221 477q0 -84 33 -157.5t88 -129t130 -87t159 -31.5t158.5 31.5t130 87t88 129t32.5 157.5t-32.5 158t-88 129t-130 88t-158.5 33t-159 -33 t-130 -88t-88 -129t-33 -158z" />
<glyph unicode="7" horiz-adv-x="1044" d="M61 1358v96h983l-741 -1454h-115l693 1358h-820z" />
<glyph unicode="8" horiz-adv-x="1206" d="M104 403q0 72 27 133.5t71 109.5t99 82t113 52q-53 18 -99.5 49t-82 70t-56 88t-20.5 105q0 88 40 155.5t103 113.5t144 69.5t161 23.5t160 -23.5t143.5 -69.5t103.5 -112.5t40 -154.5q0 -57 -21.5 -105.5t-56.5 -88.5t-83 -70.5t-99 -49.5q63 -23 120.5 -58.5 t98.5 -84.5t65.5 -109.5t24.5 -130.5q0 -94 -41 -169.5t-109.5 -130t-161 -83t-192.5 -28.5q-109 0 -200 33.5t-155.5 90t-100.5 132t-36 161.5zM209 403q0 -78 36 -138t93 -102t128 -64.5t140 -22.5q70 0 140.5 23.5t126 66.5t90 103.5t34.5 136.5q0 78 -35.5 139t-93 103 t-128 64.5t-140.5 22.5q-72 0 -141.5 -23.5t-124.5 -66.5t-90 -104.5t-35 -137.5zM260 1087q0 -66 32 -114.5t81 -83.5t109.5 -52.5t119.5 -17.5t120.5 18.5t111 53.5t81 85t31.5 116q0 63 -29.5 113t-77.5 84t-110.5 52.5t-128.5 18.5t-127 -18.5t-108.5 -54.5t-76 -86.5 t-28.5 -113.5z" />
<glyph unicode="9" horiz-adv-x="1228" d="M88 967q0 104 40 194t108.5 157.5t162 106.5t201.5 39q113 0 207 -41t163.5 -116.5t108.5 -186t39 -248.5q0 -227 -39 -395t-108.5 -278.5t-166.5 -164.5t-214 -54q-147 0 -261 75.5t-169 206.5l71 55q41 -111 139.5 -177t219.5 -66q96 0 175 46t135 135t87 217t31 294 q-23 -66 -66 -120t-99 -93t-123.5 -60.5t-141.5 -21.5q-104 0 -195.5 39t-159 106.5t-106.5 158t-39 192.5zM188 969q0 -84 33 -159t89.5 -130t130 -88t157.5 -33t158.5 33t131 88t89.5 129t33 158q0 82 -33 156.5t-89.5 130t-132 88t-159.5 32.5t-157.5 -32.5t-129 -88 t-88.5 -129t-33 -155.5z" />
<glyph unicode=":" horiz-adv-x="362" d="M137 0v174h88v-174h-88zM137 885v174h88v-174h-88z" />
<glyph unicode=";" horiz-adv-x="391" d="M143 -4v178h105v-178l-41 -162h-55l28 162h-37zM145 885v174h91v-174h-91z" />
<glyph unicode="&#x3c;" horiz-adv-x="1036" d="M70 498v61l856 514v-110l-709 -433l709 -432v-112z" />
<glyph unicode="=" horiz-adv-x="894" d="M141 426v78h613v-78h-613zM141 627v78h613v-78h-613z" />
<glyph unicode="&#x3e;" horiz-adv-x="1036" d="M111 -14v112l706 432l-706 433v110l856 -514v-61z" />
<glyph unicode="?" horiz-adv-x="968" d="M72 1208q27 63 72.5 112.5t102 83.5t121 51.5t130.5 17.5q76 0 146.5 -25t125.5 -73t88 -120.5t33 -169.5q0 -86 -25.5 -145t-67.5 -100t-95.5 -71t-106.5 -54q-43 -20 -75 -42t-53.5 -56.5t-32.5 -88t-11 -133.5h-90q0 80 11 137.5t33.5 99.5t55.5 71.5t74 54.5 q43 25 94 50.5t95 61t73 89t29 133.5q0 74 -25.5 129t-67.5 92t-96.5 54t-111.5 17q-117 0 -211 -61t-142 -160zM336 0v201h90v-201h-90z" />
<glyph unicode="@" horiz-adv-x="1708" d="M98 471q0 172 62.5 312.5t167 240.5t241 155.5t283.5 55.5q152 0 286 -58.5t235.5 -162t159.5 -246.5t58 -313q0 -29 -3 -77t-13 -102.5t-29.5 -109.5t-52.5 -99t-81 -72t-116 -28q-51 0 -81.5 15.5t-48 42t-24.5 62.5t-12 75q-55 -59 -146 -102.5t-198 -43.5 q-141 0 -223 76t-82 193q0 76 34 128t88 82.5t121 44t134 13.5q92 0 162 -17.5t104 -29.5q0 78 -12 142.5t-41 110.5t-80 71.5t-127 25.5q-78 0 -152.5 -25.5t-136.5 -72.5l-32 63q72 47 154.5 77t174.5 30q109 0 173.5 -37t98.5 -97.5t44 -135t10 -148.5v-283 q0 -45 3 -81.5t14.5 -62.5t33 -39t56.5 -13q66 0 109.5 45t69 109.5t36 138t10.5 133.5q0 150 -52.5 281.5t-144.5 228t-216 153t-267 56.5q-139 0 -264 -52.5t-220.5 -146.5t-150.5 -223t-55 -283q0 -147 52 -277.5t144.5 -226.5t217 -151.5t268.5 -55.5q164 0 313 78 l25 -55q-162 -82 -338 -82q-154 0 -289 58.5t-236.5 162t-160 243.5t-58.5 306zM557 289q0 -94 67.5 -148.5t166.5 -54.5q51 0 102 13.5t90 31.5q45 20 72.5 47t43 56.5t19.5 59.5t4 60v86q-12 2 -36.5 9.5t-58.5 15.5t-79 15t-96 7q-55 0 -108.5 -10t-95.5 -32.5 t-66.5 -60.5t-24.5 -95z" />
<glyph unicode="A" horiz-adv-x="1382" d="M29 0l618 1454h90l615 -1454h-111l-203 479h-694l-203 -479h-112zM369 565h641l-318 762z" />
<glyph unicode="B" horiz-adv-x="1355" d="M190 0v1454h678q76 0 137.5 -32.5t104.5 -85t66.5 -119t23.5 -134.5q0 -111 -55 -203t-154 -135q125 -37 198 -138t73 -230q0 -80 -31 -148.5t-84 -120t-125 -80t-152 -28.5h-680zM295 94h575q61 0 113.5 24.5t90.5 66.5t60.5 95.5t22.5 110.5t-20.5 111.5t-57.5 96.5 t-87 66.5t-107 24.5h-590v-596zM295 778h532q59 0 108.5 24.5t85.5 64.5t56.5 93.5t20.5 108.5q0 59 -19.5 111.5t-53.5 92.5t-81 63.5t-104 23.5h-545v-582z" />
<glyph unicode="C" horiz-adv-x="1413" d="M90 737q0 131 46 261t134 232.5t216 167t292 64.5q195 0 332 -89t205 -228l-86 -49q-39 76 -91.5 127t-112.5 82.5t-125.5 46t-129.5 14.5q-139 0 -245.5 -56.5t-180.5 -146.5t-111.5 -203.5t-37.5 -228.5q0 -129 45 -245.5t122.5 -206t184 -142.5t229.5 -53 q66 0 135.5 16.5t133 51t119 89t91.5 128.5l91 -43q-37 -82 -100.5 -145.5t-141.5 -106.5t-165 -64.5t-171 -21.5q-150 0 -273.5 65.5t-214 171t-140.5 239.5t-50 273z" />
<glyph unicode="D" horiz-adv-x="1460" d="M190 0v1454h484q172 0 302 -57.5t216 -155.5t129 -230t43 -282q0 -166 -48 -300t-138.5 -229.5t-218.5 -147.5t-285 -52h-484zM295 94h379q143 0 252.5 48t183.5 134t112 202t38 251q0 137 -39 253t-114 200t-183.5 131t-249.5 47h-379v-1266z" />
<glyph unicode="E" d="M190 0v1454h951v-94h-846v-572h739v-90h-739v-604h864v-94h-969z" />
<glyph unicode="F" horiz-adv-x="1216" d="M190 0v1454h947v-94h-842v-578h715v-90h-715v-692h-105z" />
<glyph unicode="G" horiz-adv-x="1468" d="M90 729q0 143 50 276.5t139.5 235.5t212 162.5t268.5 60.5q109 0 195.5 -23.5t155.5 -65.5t119 -100t85 -128l-86 -51q-74 143 -196 207.5t-275 64.5q-129 0 -233.5 -55.5t-178.5 -145.5t-112.5 -204.5t-38.5 -235.5q0 -129 45 -244.5t123.5 -204t185 -140.5t229.5 -52 q133 0 253 61.5t231 194.5v281h-330v84h420v-707h-90v227q-210 -237 -488 -237h-2q-147 0 -273 63.5t-216 168t-141.5 237.5t-51.5 270z" />
<glyph unicode="H" horiz-adv-x="1505" d="M190 0v1454h105v-663h917v663h105v-1454h-105v696h-917v-696h-105z" />
<glyph unicode="I" horiz-adv-x="485" d="M190 0v1454h105v-1454h-105z" />
<glyph unicode="J" horiz-adv-x="978" d="M33 68l33 84q51 -35 122.5 -56.5t159.5 -21.5q119 0 188.5 43t106.5 125t48 201.5t11 271.5v739h105v-739q0 -166 -14.5 -302.5t-62.5 -232.5t-138 -149.5t-244 -53.5q-184 0 -315 91z" />
<glyph unicode="K" horiz-adv-x="1300" d="M190 0v1454h105v-883l848 883h121l-605 -637l635 -817h-118l-584 754l-297 -305v-449h-105z" />
<glyph unicode="L" horiz-adv-x="1189" d="M190 0v1454h105v-1360h868v-94h-973z" />
<glyph unicode="M" horiz-adv-x="1802" d="M190 0v1454h105l606 -1040l606 1040h105v-1454h-105v1257l-573 -981h-66l-573 981v-1257h-105z" />
<glyph unicode="N" horiz-adv-x="1583" d="M190 0v1454h80l1020 -1280v1280h105v-1454h-97l-1003 1257v-1257h-105z" />
<glyph unicode="O" horiz-adv-x="1542" d="M90 727q0 145 52.5 278.5t143.5 235.5t216 162.5t270 60.5q152 0 278 -64.5t215 -169t138 -236.5t49 -267q0 -147 -52 -280.5t-143.5 -234.5t-216.5 -161.5t-270 -60.5q-152 0 -276.5 63.5t-215 166t-139.5 235.5t-49 272zM195 727q0 -125 42 -240.5t118.5 -204.5 t183 -142.5t233.5 -53.5q131 0 236.5 55.5t180.5 146.5t116 205.5t41 233.5q0 125 -43 240.5t-120 205t-181.5 142.5t-229.5 53q-131 0 -237.5 -55.5t-182.5 -146.5t-116.5 -205.5t-40.5 -233.5z" />
<glyph unicode="P" horiz-adv-x="1271" d="M190 0v1454h598q92 0 170 -39t134.5 -103.5t88 -145.5t31.5 -162q0 -88 -29.5 -170t-84 -145.5t-130 -101.5t-167.5 -38h-506v-549h-105zM295 645h502q72 0 129 30t97 80t61.5 114.5t21.5 134.5q0 72 -25.5 136t-69.5 113.5t-102.5 78t-124.5 28.5h-489v-715z" />
<glyph unicode="Q" horiz-adv-x="1540" d="M90 727q0 145 52.5 278.5t143.5 235.5t216 162.5t270 60.5q152 0 278 -64.5t215 -169t138 -236.5t49 -267q0 -154 -56.5 -291t-154.5 -241l162 -195h-109l-114 137q-86 -70 -189.5 -108.5t-220.5 -38.5q-152 0 -276.5 63.5t-215 166t-139.5 235.5t-49 272zM195 727 q0 -125 42 -240.5t118.5 -204.5t183 -142.5t233.5 -53.5q102 0 188.5 34t155.5 93l-172 209h109l123 -150q82 92 126 211t44 244t-43 240.5t-120 205t-181.5 142.5t-229.5 53q-131 0 -237.5 -55.5t-182.5 -146.5t-116.5 -205.5t-40.5 -233.5z" />
<glyph unicode="R" horiz-adv-x="1329" d="M190 0v1454h605q92 0 169.5 -39t134 -103.5t88.5 -145.5t32 -162q0 -80 -25 -155t-70 -134.5t-108.5 -98t-138.5 -51.5l362 -565h-121l-352 549h-471v-549h-105zM295 645h510q70 0 127 31t98 81t62.5 114.5t21.5 132.5q0 70 -25.5 134t-69.5 113t-102.5 79t-125.5 30 h-496v-715z" />
<glyph unicode="S" horiz-adv-x="1239" d="M72 205l55 84q92 -96 225 -152.5t299 -56.5q190 0 298 69.5t108 210.5q0 72 -29 122t-85 87t-142 63.5t-201 51.5q-117 25 -206 52.5t-149.5 69.5t-91 101.5t-30.5 149.5q0 98 38 174t105.5 128t161.5 78.5t209 26.5q141 0 251.5 -42t201.5 -128l-54 -82 q-141 158 -399 158q-213 0 -310.5 -81t-97.5 -218q0 -70 25 -116t77 -78.5t132 -55t192 -47.5q117 -25 212.5 -54.5t162 -74.5t102 -110.5t35.5 -161.5t-37.5 -168t-106.5 -120t-164 -72.5t-212 -24.5q-340 0 -575 217z" />
<glyph unicode="T" horiz-adv-x="1241" d="M37 1360v94h1169v-94h-532v-1360h-105v1360h-532z" />
<glyph unicode="U" horiz-adv-x="1548" d="M168 723v731h104v-731q0 -121 23.5 -235.5t82 -203.5t155 -143.5t241.5 -54.5q147 0 244.5 55.5t154 145.5t80 204.5t23.5 231.5v731h104v-731q0 -145 -31.5 -278.5t-103 -234.5t-186.5 -160.5t-283 -59.5q-174 0 -290.5 62.5t-187.5 166t-100.5 234.5t-29.5 270z" />
<glyph unicode="V" horiz-adv-x="1390" d="M31 1454h110l553 -1323l553 1323h111l-615 -1454h-96z" />
<glyph unicode="W" horiz-adv-x="2136" d="M31 1454h112l559 -1331l302 708l-256 613h102l217 -529l217 529h102l-256 -613l306 -708l557 1331h114l-622 -1454h-96l-320 748l-321 -748h-97z" />
<glyph unicode="X" horiz-adv-x="1286" d="M14 1454h121l510 -661l508 661h119l-572 -737l555 -717h-118l-492 641l-493 -641h-121l555 717z" />
<glyph unicode="Y" horiz-adv-x="1325" d="M39 1454h115l508 -805l509 805h117l-573 -905v-549h-105v553z" />
<glyph unicode="Z" horiz-adv-x="1284" d="M61 0v86l1035 1274h-1020v94h1143v-86l-1026 -1274h1021v-94h-1153z" />
<glyph unicode="[" horiz-adv-x="505" d="M186 -82v1598h207v-89h-108v-1421h108v-88h-207z" />
<glyph unicode="\" horiz-adv-x="1122" d="M55 1454h121l891 -1454h-119z" />
<glyph unicode="]" horiz-adv-x="505" d="M111 6h110v1421h-110v89h206v-1598h-206v88z" />
<glyph unicode="^" horiz-adv-x="1077" d="M90 621l406 833h88l403 -833h-94l-352 729l-361 -729h-90z" />
<glyph unicode="_" horiz-adv-x="1062" d="M135 0h791v-94h-791v94z" />
<glyph unicode="`" horiz-adv-x="436" d="M100 1495h117l127 -174l-70 -33z" />
<glyph unicode="a" horiz-adv-x="1196" d="M43 0l514 1116h80l512 -1116h-102l-164 358h-570l-166 -358h-104zM338 442h516l-256 553z" />
<glyph unicode="b" horiz-adv-x="1177" d="M180 0v1116h570q63 0 114 -24.5t86 -65.5t54.5 -92t19.5 -103q0 -86 -46 -155.5t-126 -102.5q104 -29 163.5 -106.5t59.5 -177.5q0 -61 -25.5 -114.5t-70.5 -92.5t-104.5 -60.5t-126.5 -21.5h-568zM274 84h474q49 0 91 18.5t72.5 49t49 69.5t18.5 82t-16.5 83t-46 69.5 t-69.5 48t-87 18.5h-486v-438zM274 604h439q47 0 87 17.5t68.5 47t45 68.5t16.5 80q0 88 -57.5 150.5t-149.5 62.5h-449v-426z" />
<glyph unicode="c" horiz-adv-x="1220" d="M96 567q0 100 38 199.5t111.5 178.5t180 128t244.5 49q162 0 276.5 -68.5t171.5 -174.5l-80 -48q-31 57 -73.5 96.5t-92 63t-103.5 33.5t-105 10q-115 0 -202 -42t-147.5 -109.5t-91 -152.5t-30.5 -171q0 -96 36.5 -183t100 -152.5t150.5 -105.5t188 -40q53 0 110.5 12 t109.5 38t97 67t76 96l82 -41q-31 -63 -84 -111.5t-117.5 -81t-137.5 -50t-142 -17.5q-125 0 -228.5 50t-178.5 132t-117 185.5t-42 209.5z" />
<glyph unicode="d" horiz-adv-x="1265" d="M180 0v1116h406q143 0 251.5 -44t181.5 -118.5t108.5 -176t35.5 -216.5q0 -127 -41 -230.5t-115.5 -177t-182 -113.5t-238.5 -40h-406zM274 86h312q119 0 209 36t150.5 100.5t91 150.5t30.5 188t-31.5 188.5t-93 147.5t-151 96t-205.5 35h-312v-942z" />
<glyph unicode="e" horiz-adv-x="1087" d="M180 0v1116h795v-88h-701v-418h613v-82h-613v-442h717v-86h-811z" />
<glyph unicode="f" horiz-adv-x="1054" d="M180 0v1116h791v-88h-697v-422h592v-84h-592v-522h-94z" />
<glyph unicode="g" horiz-adv-x="1265" d="M96 561q0 111 42 212t116 179t176 124t223 46q180 0 292 -67.5t169 -173.5l-78 -50q-59 106 -159.5 155.5t-227.5 49.5q-104 0 -189 -41t-144.5 -108.5t-91 -153.5t-31.5 -176q0 -96 36.5 -182t101 -151.5t151.5 -104.5t188 -39q106 0 203.5 45t189.5 143v201h-272v76 h356v-545h-84v166q-172 -174 -401 -174q-123 0 -226.5 49t-179.5 129t-118 182.5t-42 208.5z" />
<glyph unicode="h" horiz-adv-x="1304" d="M180 0v1116h94v-502h754v502h96v-1116h-96v526h-754v-526h-94z" />
<glyph unicode="i" horiz-adv-x="454" d="M180 0v1114h94v-1114h-94z" />
<glyph unicode="j" horiz-adv-x="862" d="M47 51l31 78q41 -25 100.5 -42t132.5 -17q98 0 155.5 31.5t87.5 93t39 150.5t9 204v565h94v-565q0 -127 -12 -231.5t-52 -178t-116 -114.5t-205 -41q-158 0 -264 67z" />
<glyph unicode="k" horiz-adv-x="1134" d="M180 0v1114h94v-661l697 663h110l-501 -489l526 -627h-107l-479 567l-246 -223v-344h-94z" />
<glyph unicode="l" horiz-adv-x="1019" d="M180 0v1116h94v-1030h703v-86h-797z" />
<glyph unicode="m" horiz-adv-x="1548" d="M180 0v1116h96l498 -780l498 780h96v-1116h-96v940l-469 -731h-58l-471 731v-940h-94z" />
<glyph unicode="n" horiz-adv-x="1366" d="M180 0v1116h74l838 -952v950h94v-1114h-86l-826 936v-936h-94z" />
<glyph unicode="o" horiz-adv-x="1327" d="M96 559q0 111 43 212t120 180t180.5 125t226.5 46q127 0 231 -49t178 -129t115 -181t41 -206q0 -113 -43 -215t-119 -180t-180 -124t-225 -46q-127 0 -231.5 48t-179.5 127t-116 181.5t-41 210.5zM193 557q0 -92 34.5 -179t97 -152.5t149.5 -105.5t192 -40q106 0 193 42 t148.5 109.5t94.5 153.5t33 174q0 92 -35 178t-98.5 152.5t-149.5 105.5t-188 39q-106 0 -193.5 -41t-149 -108.5t-95 -153.5t-33.5 -174z" />
<glyph unicode="p" horiz-adv-x="1105" d="M180 0v1116h500q78 0 142.5 -30.5t111.5 -80t73.5 -113t26.5 -126.5q0 -68 -24.5 -130.5t-69.5 -111.5t-108.5 -78.5t-139.5 -29.5h-418v-416h-94zM274 502h412q57 0 104.5 21.5t80 58t50 85t17.5 99.5q0 53 -20.5 100t-56.5 83t-83 57.5t-102 21.5h-402v-526z" />
<glyph unicode="q" horiz-adv-x="1325" d="M96 559q0 111 43 212t120 180t180.5 125t226.5 46q127 0 231 -49t178 -129t115 -181t41 -206q0 -117 -46 -221.5t-126 -181.5l137 -154h-98l-94 104q-70 -53 -156 -82.5t-184 -29.5q-127 0 -231.5 48t-179.5 127t-116 181.5t-41 210.5zM193 557q0 -92 34.5 -179 t97 -152.5t150 -105.5t191.5 -40q82 0 151.5 24.5t126.5 67.5l-145 164h98l100 -115q66 70 102 158t36 180t-35 179t-98.5 152.5t-149.5 105.5t-188 40q-106 0 -193.5 -42t-149 -109.5t-95 -153.5t-33.5 -174z" />
<glyph unicode="r" horiz-adv-x="1155" d="M180 0v1116h508q76 0 141.5 -30.5t112.5 -80t73.5 -113t26.5 -126.5q0 -61 -20.5 -116.5t-57 -100.5t-89 -76t-113.5 -41l299 -432h-111l-288 416h-388v-416h-94zM274 502h418q57 0 104.5 22.5t80 59.5t51 84t18.5 98t-20.5 99t-56 84t-84 57.5t-103.5 21.5h-408v-526z " />
<glyph unicode="s" horiz-adv-x="1073" d="M82 154l51 77q76 -72 184.5 -114.5t245.5 -42.5q150 0 239 50t89 155q0 53 -23.5 90t-69.5 64.5t-117 47t-165 37.5q-96 18 -169 41t-122 55.5t-74.5 79.5t-25.5 117q0 76 31.5 134.5t88 97t135.5 59t173 20.5q229 0 375 -129l-45 -75q-120 120 -327 120h-3 q-174 0 -252 -58t-78 -161q0 -51 20.5 -85t63.5 -58.5t108.5 -42t155.5 -35.5q96 -18 174 -40.5t132.5 -57.5t84 -85t29.5 -126t-30.5 -132.5t-88 -93t-136.5 -55t-175 -18.5q-279 0 -479 164z" />
<glyph unicode="t" horiz-adv-x="1075" d="M49 1028v88h977v-88h-440v-1028h-94v1028h-443z" />
<glyph unicode="u" horiz-adv-x="1331" d="M162 555v561h94v-561q0 -90 19.5 -176t66.5 -152.5t126 -106.5t196 -40q121 0 199.5 41t125.5 108.5t66.5 152.5t19.5 173v561h94v-561q0 -113 -26.5 -215t-86 -179t-155.5 -123t-235 -46q-143 0 -239.5 48t-155 127t-84 180.5t-25.5 207.5z" />
<glyph unicode="v" horiz-adv-x="1198" d="M45 1116h100l455 -985l453 985h102l-512 -1116h-86z" />
<glyph unicode="w" horiz-adv-x="1826" d="M45 1116h105l462 -999l242 516l-211 475h90l178 -401l181 401h92l-215 -475l248 -516l460 999h105l-518 -1116h-86l-265 561l-264 -561h-88z" />
<glyph unicode="x" horiz-adv-x="1118" d="M33 1116h108l418 -495l418 495h108l-473 -565l459 -551h-106l-406 479l-403 -479h-109l459 551z" />
<glyph unicode="y" horiz-adv-x="1142" d="M49 1116h105l417 -610l418 610h107l-478 -698v-418h-96v420z" />
<glyph unicode="z" horiz-adv-x="1122" d="M76 0v78l852 950h-840v88h954v-78l-845 -952h841v-86h-962z" />
<glyph unicode="{" horiz-adv-x="507" d="M121 698v82q20 0 34.5 12.5t22.5 29t11.5 33.5t3.5 28v571q0 41 18 51.5t29 10.5h161v-89h-112v-567q0 -20 -9.5 -57t-41.5 -66q33 -29 42 -66.5t9 -56.5v-589h112v-88h-161q-16 0 -31.5 13t-15.5 48v594q0 37 -17.5 69.5t-54.5 36.5z" />
<glyph unicode="|" horiz-adv-x="456" d="M182 -266v1853h92v-1853h-92z" />
<glyph unicode="}" horiz-adv-x="507" d="M106 25h113v589q0 18 9.5 56.5t41.5 66.5q-33 29 -42 66t-9 57v567h-113v89h162q8 0 27.5 -10.5t19.5 -51.5v-571q0 -10 3.5 -27.5t11.5 -34t21.5 -29t35.5 -12.5v-82q-39 -4 -55.5 -36.5t-16.5 -69.5v-594q0 -35 -15 -48t-32 -13h-162v88z" />
<glyph unicode="~" horiz-adv-x="1009" d="M139 502q0 6 10.5 37.5t35 66.5t62.5 62.5t93 27.5q45 0 85 -19.5t79 -42t76.5 -42t78.5 -19.5q39 0 66 15.5t44 35t25.5 37t8.5 21.5h69q0 -4 -10 -31.5t-34.5 -61.5t-65.5 -60.5t-103 -26.5q-49 0 -92 18.5t-82 42t-74.5 42t-70.5 18.5t-59.5 -18.5t-41 -41t-23.5 -41 t-7 -20.5h-70z" />
<glyph unicode="&#xa1;" horiz-adv-x="495" d="M197 -2v1022h102v-1022h-102zM197 1257v209h102v-209h-102z" />
<glyph unicode="&#xa2;" horiz-adv-x="1134" d="M90 528q0 104 34 200.5t96.5 171.5t149.5 124t195 57v240h64v-240q156 -4 255 -69.5t152 -175.5l-98 -33q-51 92 -131 137t-178 49v-915q43 0 94 14t97 40t82 61.5t48 78.5l101 -28q-23 -66 -71 -114t-107.5 -81t-124 -49t-119.5 -16v-226h-64v228q-104 8 -191 58 t-150.5 126t-98.5 170t-35 192zM195 528q0 -84 27.5 -160.5t77.5 -138t117.5 -101.5t147.5 -50v907q-88 -6 -156.5 -48t-116.5 -106.5t-72.5 -143.5t-24.5 -159z" />
<glyph unicode="&#xa3;" horiz-adv-x="997" d="M102 674v84h205q-25 45 -50.5 88t-47 86t-35.5 89t-14 97q0 72 28.5 134.5t76.5 109.5t113.5 74.5t139.5 27.5q109 0 203 -58t153 -157l-65 -63q-49 88 -129 139t-166 51q-53 0 -99 -20.5t-81 -56t-55.5 -83t-20.5 -102.5q0 -47 14.5 -91t37 -87t49 -87t49.5 -91h360v-84 h-326q12 -37 19.5 -76t7.5 -82q0 -53 -11.5 -102t-38 -100.5t-69.5 -106.5t-104 -123q76 16 147 16q45 0 83 -6t73 -13t68.5 -13.5t72.5 -6.5q41 0 85 9.5t104 29.5l26 -82q-109 -49 -221 -49q-45 0 -85 7.5t-79 15.5t-79 15t-87 7t-104 -8t-107 -20l-30 75q76 76 126 137.5 t80.5 114t43 99.5t12.5 98q0 45 -8.5 86t-22.5 78h-242z" />
<glyph unicode="&#xa4;" horiz-adv-x="1095" d="M117 311l145 144q-80 102 -80 233q0 133 76 232l-141 143l53 53l141 -143q47 41 106.5 64.5t129.5 23.5t130 -24.5t107 -65.5l144 145l55 -53l-145 -145q35 -47 55 -105.5t20 -124.5q0 -129 -79 -231l149 -146l-49 -49l-150 144q-47 -41 -107.5 -64t-129.5 -23 q-70 0 -129.5 21.5t-106.5 62.5l-145 -141zM270 686q0 -61 21.5 -113.5t59.5 -92.5t88 -62.5t108 -22.5q57 0 107.5 23.5t88 63.5t59 93.5t21.5 114.5t-21.5 114.5t-59 93.5t-88 62.5t-107.5 22.5t-107.5 -23.5t-88.5 -63.5t-59.5 -94.5t-21.5 -115.5z" />
<glyph unicode="&#xa5;" horiz-adv-x="1366" d="M57 1454h117l508 -805l510 805h115l-463 -723h180v-78h-225l-66 -104v-53h291v-76h-291v-420h-104v420h-289v76h289v57l-62 100h-227v78h182z" />
<glyph unicode="&#xa6;" horiz-adv-x="462" d="M186 -266v839h93v-839h-93zM186 748v839h93v-839h-93z" />
<glyph unicode="&#xa7;" horiz-adv-x="1017" d="M94 1124q0 78 35 140.5t90 107.5t126 68.5t142 23.5q145 0 228.5 -52t134.5 -128l-82 -37q-18 37 -50 60.5t-70 37t-79 19.5t-77 6q-53 0 -106.5 -16.5t-94.5 -48t-66.5 -77.5t-25.5 -104q0 -63 22.5 -107t61.5 -71.5t93 -40t118 -12.5q74 0 146.5 -16.5t128.5 -53.5 t92 -96t36 -145q0 -59 -19.5 -110.5t-48.5 -82.5q100 -61 101 -217q0 -88 -38 -154.5t-96.5 -110.5t-129 -65.5t-138.5 -21.5q-70 0 -128 15t-107 41t-89 58.5t-73 65.5l68 63q78 -74 156.5 -109.5t170.5 -35.5q53 0 106.5 17.5t96.5 49t69.5 79t26.5 106.5q0 63 -25.5 103 t-66.5 61.5t-92 30t-100 10.5q-84 4 -156 24.5t-124 60.5t-83 99t-31 139q0 55 17.5 104.5t42.5 78.5q-49 33 -81 96t-32 147zM248 688q0 -72 25.5 -115t66.5 -67.5t93 -34.5t106.5 -16t104.5 -13.5t87 -21.5q31 27 49.5 71t18.5 91q0 63 -29 106t-73 69.5t-97 37t-102 10.5 q-113 0 -195 35q-25 -25 -40 -67t-15 -85z" />
<glyph unicode="&#xa8;" horiz-adv-x="602" d="M117 1311v180h90v-180h-90zM395 1311v180h90v-180h-90z" />
<glyph unicode="&#xa9;" horiz-adv-x="1697" d="M100 727q0 158 56.5 293t157 233.5t237.5 154.5t297 56q162 0 299 -56t237.5 -154.5t156.5 -233.5t56 -293q0 -160 -56 -295t-156.5 -234.5t-237.5 -155.5t-299 -56q-160 0 -297 56t-237.5 155.5t-157 234.5t-56.5 295zM162 725q0 -145 51 -270t143.5 -216.5 t218.5 -143.5t273 -52q145 0 271 49t218.5 139.5t145.5 214t53 275.5q0 147 -51 273t-143.5 218.5t-218.5 143.5t-275 51q-147 0 -273 -51t-217.5 -142.5t-143.5 -216.5t-52 -272zM395 727q0 84 28 169t83 153.5t141 111.5t203 43q127 0 229.5 -55t145.5 -164l-99 -33 q-23 49 -56.5 81t-72.5 49.5t-77.5 23.5t-69.5 6q-90 0 -155.5 -35t-108.5 -90t-64.5 -123.5t-21.5 -136.5q0 -92 33.5 -162.5t86 -119t115 -74t121.5 -25.5q39 0 83 11.5t84 33t71.5 53t48.5 70.5l98 -29q-12 -35 -44 -74.5t-81 -74.5t-113.5 -58.5t-140.5 -23.5 q-88 0 -172 32.5t-149.5 94t-105.5 149.5t-40 197z" />
<glyph unicode="&#xaa;" horiz-adv-x="882" d="M100 936q0 96 85 156.5t221 60.5q59 0 116.5 -9t102.5 -28v64q0 92 -54.5 146t-152.5 54q-109 0 -236 -84l-35 64q143 94 277 94q141 0 221 -74.5t80 -212.5v-313q0 -39 35 -41v-88q-16 -2 -27.5 -2h-21.5q-66 6 -72 70l-2 53q-51 -66 -128 -99.5t-165 -33.5 q-51 0 -96 17.5t-78 47t-51.5 70.5t-18.5 88zM197 942q0 -66 49 -108.5t123 -42.5q72 0 135 25.5t96 68.5q25 27 25 55v113q-47 20 -98.5 27t-104.5 7q-102 0 -163.5 -39.5t-61.5 -105.5z" />
<glyph unicode="&#xab;" horiz-adv-x="1130" d="M84 498v61l500 359v-93l-414 -295l414 -292v-93zM498 498v61l499 359v-93l-413 -295l413 -292v-93z" />
<glyph unicode="&#xac;" horiz-adv-x="1175" d="M160 631v94h872v-457h-92v363h-780z" />
<glyph unicode="&#xad;" horiz-adv-x="1144" d="M137 510v94h871v-94h-871z" />
<glyph unicode="&#xae;" horiz-adv-x="1697" d="M100 727q0 158 56.5 293t157 233.5t237.5 154.5t297 56q162 0 299 -56t237.5 -154.5t156.5 -233.5t56 -293q0 -160 -56 -295t-156.5 -234.5t-237.5 -155.5t-299 -56q-160 0 -297 56t-237.5 155.5t-157 234.5t-56.5 295zM164 727q0 -147 51 -272t142.5 -216.5 t217.5 -143.5t273 -52q145 0 271 49t218.5 139.5t145.5 216t53 279.5q0 145 -51 269t-143.5 215.5t-218.5 143.5t-275 52q-147 0 -273 -52t-217.5 -143.5t-142.5 -215.5t-51 -269zM543 256v934h389q59 0 108.5 -25.5t85 -66.5t56 -93.5t20.5 -105.5q0 -51 -16.5 -98t-45 -85 t-69.5 -63.5t-90 -31.5l231 -365h-92l-225 354h-270v-354h-82zM625 684h309q92 0 140 63.5t48 151.5q0 92 -55 152.5t-141 60.5h-301v-428z" />
<glyph unicode="&#xaf;" horiz-adv-x="798" d="M109 1376v76h583v-76h-583z" />
<glyph unicode="&#xb0;" horiz-adv-x="534" d="M109 1325q0 66 46 112t111 46q68 0 114 -46t46 -112q0 -70 -46 -116t-114 -46q-66 0 -111.5 47t-45.5 115zM174 1323q0 -39 27 -66q12 -12 28.5 -20t36.5 -8t38 8t30 20q27 27 26 66q0 37 -26 68q-25 27 -68 26q-40 1 -65 -26q-27 -31 -27 -68z" />
<glyph unicode="&#xb1;" horiz-adv-x="958" d="M158 143v88h643v-88h-643zM158 694v88h274v295h94v-295h275v-88h-275v-295h-94v295h-274z" />
<glyph unicode="&#xb2;" horiz-adv-x="780" d="M76 846q0 78 16.5 136t49 101t80.5 74t110 55q47 18 97 35t91 40.5t67.5 57t26.5 82.5q0 66 -53 115t-164 49q-53 0 -95 -12t-74.5 -29.5t-55 -38t-37.5 -36.5l-49 49q6 8 28.5 30.5t62.5 46t97.5 42t133.5 18.5q72 0 126 -18.5t89.5 -51t53 -74.5t17.5 -92 q0 -63 -29.5 -107t-73.5 -74t-94.5 -49t-93.5 -32q-76 -25 -118.5 -55.5t-65 -63t-29 -66.5t-6.5 -63h506v-69h-614z" />
<glyph unicode="&#xb3;" horiz-adv-x="790" d="M76 1022l47 43q2 -29 23.5 -57.5t56.5 -51t83 -36t103 -13.5q51 0 96 11.5t78 32t52.5 49t19.5 63.5q0 76 -83 119t-222 43h-47v65h47q131 0 203.5 36t72.5 108q0 37 -18.5 65.5t-49 50t-72.5 32.5t-89 11q-86 0 -148.5 -31.5t-91.5 -84.5l-51 53q35 59 115 95t176 36 q66 0 122 -17.5t97 -47t64.5 -70.5t23.5 -88q0 -141 -184 -178q96 -16 152.5 -73t56.5 -134q0 -49 -26 -90t-69 -70t-101 -44t-124 -15q-129 0 -215 51t-98 137z" />
<glyph unicode="&#xb4;" horiz-adv-x="436" d="M100 1321l125 174h119l-172 -207z" />
<glyph unicode="&#xb5;" horiz-adv-x="1255" d="M174 -434v1499h102v-600q0 -393 271 -393q68 0 131 23.5t118.5 65.5t97.5 101.5t67 130.5v672h102v-922q0 -51 43 -51v-92q-10 -2 -17.5 -2h-13.5q-45 0 -74.5 27.5t-29.5 72.5v154q-31 -59 -76 -109.5t-101.5 -86.5t-120 -56t-130.5 -20q-104 0 -171 50t-100 138v-602 h-98z" />
<glyph unicode="&#xb6;" horiz-adv-x="1204" d="M68 969q0 229 151.5 357t425.5 128h463v-84h-143v-1534h-93v649h-163v-649h-93v649q-127 2 -228 36t-173 96.5t-109.5 150.5t-37.5 201zM160 971q0 -102 36.5 -176t99 -122t145.5 -73t175 -29v799q-223 -2 -339.5 -107.5t-116.5 -291.5zM709 571h163v799h-163v-799z" />
<glyph unicode="&#xb7;" horiz-adv-x="362" d="M137 508v207h90v-207h-90z" />
<glyph unicode="&#xb8;" horiz-adv-x="555" d="M47 -311l29 55q29 -14 77 -26.5t101 -12.5q119 0 119 76q0 41 -28 57.5t-73 16.5q-43 0 -90 -10.5t-76 -18.5l115 205l55 -25l-69 -115q18 8 41.5 10.5t40.5 2.5q70 0 108.5 -31t38.5 -90q0 -66 -49 -99.5t-141 -33.5q-59 0 -109.5 11t-89.5 28z" />
<glyph unicode="&#xb9;" horiz-adv-x="540" d="M72 1477v71q33 0 66.5 16.5t62 37t47 39l20.5 20.5h74v-746h156v-71h-398v71h168v660q-10 -12 -33.5 -29.5t-51 -33t-57.5 -25.5t-54 -10z" />
<glyph unicode="&#xba;" horiz-adv-x="919" d="M94 1081q0 76 28 143.5t76 119t114.5 81t146.5 29.5t146.5 -29.5t115.5 -81t76.5 -119t27.5 -143.5q0 -74 -27.5 -140.5t-75.5 -117.5t-115.5 -80.5t-147.5 -29.5t-146.5 29.5t-116 80.5t-76 118t-26.5 140zM184 1079q0 -59 21.5 -112.5t58.5 -93t87 -62.5t108 -23 q57 0 107 24t88 63.5t59.5 93t21.5 114.5t-21.5 114.5t-59.5 92.5t-88 61.5t-107 22.5q-55 0 -105.5 -22.5t-88.5 -62.5t-59.5 -94.5t-21.5 -115.5z" />
<glyph unicode="&#xbb;" horiz-adv-x="1130" d="M133 145v93l416 292l-416 295v93l502 -359v-61zM547 145v93l414 292l-414 295v93l500 -359v-61z" />
<glyph unicode="&#xbc;" horiz-adv-x="1628" d="M94 1313v71q33 0 67 16.5t62.5 37t47 39l20.5 20.5h74v-745h155v-72h-397v72h168v659q-10 -12 -34 -29.5t-51.5 -33t-57 -25.5t-54.5 -10zM246 43l571 705l561 712l58 -47l-572 -706l-563 -713zM897 217v66l492 522h51v-518h116v-70h-116v-217h-72v217h-471zM979 287h389 v413z" />
<glyph unicode="&#xbd;" horiz-adv-x="1716" d="M98 1313v71q33 0 67 16.5t62.5 37t47 39l20.5 20.5h74v-745h155v-72h-397v72h168v659q-10 -12 -33.5 -29.5t-51.5 -33t-57.5 -25.5t-54.5 -10zM182 43l572 705l561 712l57 -47l-571 -706l-563 -713zM1018 0q0 156 65.5 239t188.5 130q45 18 94 34.5t89 39t65.5 56 t25.5 83.5q0 66 -50 111.5t-161 45.5q-53 0 -93 -12t-70.5 -29.5t-53 -38t-37.5 -38.5l-53 57q6 8 28.5 30.5t61.5 46t96.5 42t131.5 18.5q141 0 211.5 -68.5t70.5 -166.5q0 -63 -28.5 -106.5t-71.5 -73t-92.5 -49t-92.5 -32.5q-74 -23 -116.5 -50t-65 -60t-29 -68t-6.5 -71 h504v-70h-612z" />
<glyph unicode="&#xbe;" horiz-adv-x="1658" d="M88 858l47 43q2 -29 23.5 -57.5t56.5 -51t83 -36t103 -13.5q51 0 96.5 11.5t78 32t52 49t19.5 63.5q0 76 -83 119t-222 43h-47v65h47q131 0 203.5 36t72.5 108q0 37 -18 65.5t-49 50t-73 33t-89 11.5q-86 0 -148.5 -32t-90.5 -85l-52 53q35 59 115 95t176 36 q66 0 122 -17.5t97 -47t64.5 -70.5t23.5 -88q0 -141 -184 -178q96 -16 152.5 -72.5t56.5 -134.5q0 -49 -25.5 -90t-68.5 -70t-101.5 -44t-124.5 -15q-129 0 -215 51t-98 137zM317 43l572 705l561 712l57 -47l-571 -706l-563 -713zM920 217v66l491 522h51v-518h117v-70h-117 v-217h-71v217h-471zM1001 287h390v413z" />
<glyph unicode="&#xbf;" horiz-adv-x="954" d="M70 -49q0 86 25.5 145.5t67.5 100.5t95 70.5t107 54.5q43 20 74.5 41.5t53 56.5t33 88t11.5 133h90q0 -80 -11.5 -137.5t-34 -99.5t-55 -71.5t-73.5 -53.5q-43 -25 -94.5 -50.5t-95.5 -61.5t-72.5 -89t-28.5 -133q0 -74 25.5 -129.5t67.5 -92t96.5 -54t111.5 -17.5 q117 0 211 61.5t141 159.5l74 -45q-29 -63 -74 -112.5t-101.5 -83t-121 -51t-129.5 -17.5q-76 0 -146.5 24.5t-126 72.5t-88 121t-32.5 169zM535 836v200h90v-200h-90z" />
<glyph unicode="&#xc0;" horiz-adv-x="1382" d="M29 0l618 1454h90l615 -1454h-111l-203 479h-694l-203 -479h-112zM369 565h641l-318 762zM520 1880h117l127 -174l-70 -33z" />
<glyph unicode="&#xc1;" horiz-adv-x="1382" d="M29 0l618 1454h90l615 -1454h-111l-203 479h-694l-203 -479h-112zM369 565h641l-318 762zM618 1704l125 174h119l-172 -207z" />
<glyph unicode="&#xc2;" horiz-adv-x="1382" d="M29 0l618 1454h90l615 -1454h-111l-203 479h-694l-203 -479h-112zM369 565h641l-318 762zM457 1712l196 166h76l199 -166l-62 -35l-174 129l-174 -129z" />
<glyph unicode="&#xc3;" horiz-adv-x="1382" d="M29 0l618 1454h90l615 -1454h-111l-203 479h-694l-203 -479h-112zM369 565h641l-318 762zM385 1692q0 8 6 35.5t25.5 57.5t53.5 53.5t89 23.5q41 0 73 -13.5t60.5 -29t58 -27.5t68.5 -12q41 0 64.5 14t35 31.5t14.5 33t3 19.5h70q0 -10 -7.5 -38t-27 -56.5t-56.5 -52 t-98 -23.5q-45 0 -80 12.5t-63.5 27.5t-56 28.5t-58.5 13.5q-35 0 -55.5 -14.5t-30.5 -32t-14 -32.5t-4 -19h-70z" />
<glyph unicode="&#xc4;" horiz-adv-x="1382" d="M29 0l618 1454h90l615 -1454h-111l-203 479h-694l-203 -479h-112zM369 565h641l-318 762zM508 1696v180h90v-180h-90zM786 1696v180h91v-180h-91z" />
<glyph unicode="&#xc5;" horiz-adv-x="1382" d="M29 0l618 1454h90l615 -1454h-111l-203 479h-694l-203 -479h-112zM369 565h641l-318 762zM551 1751q0 55 40 91t99 36t99 -36t40 -91q0 -57 -39.5 -93t-99.5 -36q-59 0 -99 36t-40 93zM608 1751q0 -35 23.5 -58.5t58.5 -23.5q33 0 58.5 23.5t25.5 58.5q0 37 -24.5 58.5 t-59.5 21.5t-58.5 -21.5t-23.5 -58.5z" />
<glyph unicode="&#xc6;" horiz-adv-x="1970" d="M-55 0l944 1454h971v-94h-840v-569h729v-97h-729v-600h858v-94h-960v479h-547l-310 -479h-116zM420 573h491v750z" />
<glyph unicode="&#xc7;" horiz-adv-x="1406" d="M82 737q0 131 46 261t134 232.5t216 167t292 64.5q195 0 332 -89t205 -228l-86 -49q-39 76 -91.5 127t-113 82.5t-126 46t-128.5 14.5q-139 0 -245.5 -56.5t-180.5 -146.5t-112 -203.5t-38 -228.5q0 -129 45 -245.5t123 -206t184.5 -142.5t229.5 -53q66 0 135.5 16.5 t133 51t118.5 89t92 128.5l90 -43q-35 -78 -93 -138.5t-131 -103.5t-154.5 -66.5t-161.5 -27.5l-60 -99q18 8 42 10.5t40 2.5q70 0 109 -31t39 -90q0 -66 -49.5 -99.5t-141.5 -33.5q-59 0 -109.5 11t-88.5 28l28 55q29 -14 77 -26.5t101 -12.5q119 0 119 76q0 41 -27.5 57.5 t-72.5 16.5q-43 0 -90 -10.5t-76 -18.5l90 164q-143 6 -262 73.5t-204 172t-132 235.5t-47 266z" />
<glyph unicode="&#xc8;" d="M190 0v1454h951v-94h-846v-572h739v-90h-739v-604h864v-94h-969zM524 1880h117l127 -174l-70 -33z" />
<glyph unicode="&#xc9;" d="M190 0v1454h951v-94h-846v-572h739v-90h-739v-604h864v-94h-969zM623 1704l125 174h118l-172 -207z" />
<glyph unicode="&#xca;" d="M190 0v1454h951v-94h-846v-572h739v-90h-739v-604h864v-94h-969zM461 1712l196 166h76l199 -166l-62 -35l-174 129l-174 -129z" />
<glyph unicode="&#xcb;" d="M190 0v1454h951v-94h-846v-572h739v-90h-739v-604h864v-94h-969zM510 1696v180h90v-180h-90zM788 1696v180h91v-180h-91z" />
<glyph unicode="&#xcc;" horiz-adv-x="485" d="M70 1880h116l127 -174l-69 -33zM190 0v1454h105v-1454h-105z" />
<glyph unicode="&#xcd;" horiz-adv-x="485" d="M168 1704l125 174h119l-172 -207zM190 0v1454h105v-1454h-105z" />
<glyph unicode="&#xce;" horiz-adv-x="485" d="M6 1712l197 166h76l198 -166l-61 -35l-174 129l-174 -129zM190 0v1454h105v-1454h-105z" />
<glyph unicode="&#xcf;" horiz-adv-x="485" d="M57 1696v180h90v-180h-90zM190 0v1454h105v-1454h-105zM336 1696v180h90v-180h-90z" />
<glyph unicode="&#xd0;" horiz-adv-x="1474" d="M72 688v86h133v680h483q172 0 302 -57.5t216 -155.5t129 -230t43 -282q0 -166 -48 -300t-138 -229.5t-218 -147.5t-286 -52h-483v688h-133zM309 94h379q143 0 253 48t183.5 134t111.5 202t38 251q0 137 -39 253t-113.5 200t-183.5 131t-250 47h-379v-586h365v-86h-365 v-594z" />
<glyph unicode="&#xd1;" horiz-adv-x="1583" d="M190 0v1454h80l1020 -1280v1280h105v-1454h-97l-1003 1257v-1257h-105zM494 1692q0 8 6 35.5t25.5 57.5t53 53.5t89.5 23.5q41 0 72.5 -13.5t60 -29t58.5 -27.5t69 -12q41 0 64.5 14t34.5 31.5t14 33t3 19.5h70q0 -10 -7 -38t-26.5 -56.5t-56.5 -52t-98 -23.5 q-45 0 -80 12.5t-63.5 27.5t-56.5 28.5t-58 13.5q-35 0 -55.5 -14.5t-31 -32t-14.5 -32.5t-4 -19h-69z" />
<glyph unicode="&#xd2;" horiz-adv-x="1542" d="M90 727q0 145 52.5 278.5t143.5 235.5t216 162.5t270 60.5q152 0 278 -64.5t215 -169t138 -236.5t49 -267q0 -147 -52 -280.5t-143.5 -234.5t-216.5 -161.5t-270 -60.5q-152 0 -276.5 63.5t-215 166t-139.5 235.5t-49 272zM195 727q0 -125 42 -240.5t118.5 -204.5 t183 -142.5t233.5 -53.5q131 0 236.5 55.5t180.5 146.5t116 205.5t41 233.5q0 125 -43 240.5t-120 205t-181.5 142.5t-229.5 53q-131 0 -237.5 -55.5t-182.5 -146.5t-116.5 -205.5t-40.5 -233.5zM600 1880h117l127 -174l-70 -33z" />
<glyph unicode="&#xd3;" horiz-adv-x="1542" d="M90 727q0 145 52.5 278.5t143.5 235.5t216 162.5t270 60.5q152 0 278 -64.5t215 -169t138 -236.5t49 -267q0 -147 -52 -280.5t-143.5 -234.5t-216.5 -161.5t-270 -60.5q-152 0 -276.5 63.5t-215 166t-139.5 235.5t-49 272zM195 727q0 -125 42 -240.5t118.5 -204.5 t183 -142.5t233.5 -53.5q131 0 236.5 55.5t180.5 146.5t116 205.5t41 233.5q0 125 -43 240.5t-120 205t-181.5 142.5t-229.5 53q-131 0 -237.5 -55.5t-182.5 -146.5t-116.5 -205.5t-40.5 -233.5zM698 1704l125 174h119l-172 -207z" />
<glyph unicode="&#xd4;" horiz-adv-x="1542" d="M90 727q0 145 52.5 278.5t143.5 235.5t216 162.5t270 60.5q152 0 278 -64.5t215 -169t138 -236.5t49 -267q0 -147 -52 -280.5t-143.5 -234.5t-216.5 -161.5t-270 -60.5q-152 0 -276.5 63.5t-215 166t-139.5 235.5t-49 272zM195 727q0 -125 42 -240.5t118.5 -204.5 t183 -142.5t233.5 -53.5q131 0 236.5 55.5t180.5 146.5t116 205.5t41 233.5q0 125 -43 240.5t-120 205t-181.5 142.5t-229.5 53q-131 0 -237.5 -55.5t-182.5 -146.5t-116.5 -205.5t-40.5 -233.5zM537 1712l196 166h76l199 -166l-62 -35l-174 129l-174 -129z" />
<glyph unicode="&#xd5;" horiz-adv-x="1542" d="M90 727q0 145 52.5 278.5t143.5 235.5t216 162.5t270 60.5q152 0 278 -64.5t215 -169t138 -236.5t49 -267q0 -147 -52 -280.5t-143.5 -234.5t-216.5 -161.5t-270 -60.5q-152 0 -276.5 63.5t-215 166t-139.5 235.5t-49 272zM195 727q0 -125 42 -240.5t118.5 -204.5 t183 -142.5t233.5 -53.5q131 0 236.5 55.5t180.5 146.5t116 205.5t41 233.5q0 125 -43 240.5t-120 205t-181.5 142.5t-229.5 53q-131 0 -237.5 -55.5t-182.5 -146.5t-116.5 -205.5t-40.5 -233.5zM465 1692q0 8 6 35.5t25.5 57.5t53.5 53.5t89 23.5q41 0 72.5 -13.5t60.5 -29 t58.5 -27.5t68.5 -12q41 0 64.5 14t35 31.5t14.5 33t3 19.5h69q0 -10 -7 -38t-26.5 -56.5t-56.5 -52t-98 -23.5q-45 0 -80 12.5t-63.5 27.5t-56 28.5t-58.5 13.5q-35 0 -55.5 -14.5t-30.5 -32t-14 -32.5t-4 -19h-70z" />
<glyph unicode="&#xd6;" horiz-adv-x="1542" d="M90 727q0 145 52.5 278.5t143.5 235.5t216 162.5t270 60.5q152 0 278 -64.5t215 -169t138 -236.5t49 -267q0 -147 -52 -280.5t-143.5 -234.5t-216.5 -161.5t-270 -60.5q-152 0 -276.5 63.5t-215 166t-139.5 235.5t-49 272zM195 727q0 -125 42 -240.5t118.5 -204.5 t183 -142.5t233.5 -53.5q131 0 236.5 55.5t180.5 146.5t116 205.5t41 233.5q0 125 -43 240.5t-120 205t-181.5 142.5t-229.5 53q-131 0 -237.5 -55.5t-182.5 -146.5t-116.5 -205.5t-40.5 -233.5zM588 1696v180h90v-180h-90zM866 1696v180h90v-180h-90z" />
<glyph unicode="&#xd7;" horiz-adv-x="923" d="M137 299l256 256l-256 260l68 66l256 -258l260 260l65 -68l-258 -260l260 -258l-67 -66l-260 258l-258 -258z" />
<glyph unicode="&#xd8;" horiz-adv-x="1542" d="M90 727q0 145 52.5 278.5t143.5 235.5t216 162.5t270 60.5q100 0 188.5 -28.5t163.5 -79.5l66 98h119l-107 -160q119 -109 184.5 -259t65.5 -308q0 -147 -52 -280.5t-143.5 -234.5t-216.5 -161.5t-270 -60.5q-100 0 -190.5 28.5t-163.5 79.5l-64 -98h-116l102 158 q-117 106 -182.5 255.5t-65.5 313.5zM195 727q0 -141 52 -267t146 -218l678 1032q-66 45 -140.5 69.5t-158.5 24.5q-131 0 -237.5 -55.5t-182.5 -146.5t-116.5 -205.5t-40.5 -233.5zM469 178q66 -43 141.5 -67.5t161.5 -24.5q131 0 236.5 55.5t180.5 146.5t116 205.5 t41 233.5q0 139 -53.5 265t-145.5 218z" />
<glyph unicode="&#xd9;" horiz-adv-x="1548" d="M168 723v731h104v-731q0 -121 23.5 -235.5t82 -203.5t155 -143.5t241.5 -54.5q147 0 244.5 55.5t154 145.5t80 204.5t23.5 231.5v731h104v-731q0 -145 -31.5 -278.5t-103 -234.5t-186.5 -160.5t-283 -59.5q-174 0 -290.5 62.5t-187.5 166t-100.5 234.5t-29.5 270z M604 1880h117l127 -174l-70 -33z" />
<glyph unicode="&#xda;" horiz-adv-x="1548" d="M168 723v731h104v-731q0 -121 23.5 -235.5t82 -203.5t155 -143.5t241.5 -54.5q147 0 244.5 55.5t154 145.5t80 204.5t23.5 231.5v731h104v-731q0 -145 -31.5 -278.5t-103 -234.5t-186.5 -160.5t-283 -59.5q-174 0 -290.5 62.5t-187.5 166t-100.5 234.5t-29.5 270z M702 1704l125 174h119l-172 -207z" />
<glyph unicode="&#xdb;" horiz-adv-x="1548" d="M168 723v731h104v-731q0 -121 23.5 -235.5t82 -203.5t155 -143.5t241.5 -54.5q147 0 244.5 55.5t154 145.5t80 204.5t23.5 231.5v731h104v-731q0 -145 -31.5 -278.5t-103 -234.5t-186.5 -160.5t-283 -59.5q-174 0 -290.5 62.5t-187.5 166t-100.5 234.5t-29.5 270z M541 1712l196 166h76l199 -166l-62 -35l-174 129l-174 -129z" />
<glyph unicode="&#xdc;" horiz-adv-x="1548" d="M168 723v731h104v-731q0 -121 23.5 -235.5t82 -203.5t155 -143.5t241.5 -54.5q147 0 244.5 55.5t154 145.5t80 204.5t23.5 231.5v731h104v-731q0 -145 -31.5 -278.5t-103 -234.5t-186.5 -160.5t-283 -59.5q-174 0 -290.5 62.5t-187.5 166t-100.5 234.5t-29.5 270z M590 1696v180h90v-180h-90zM868 1696v180h90v-180h-90z" />
<glyph unicode="&#xdd;" horiz-adv-x="1325" d="M39 1454h115l508 -805l509 805h117l-573 -905v-549h-105v553zM588 1704l125 174h118l-172 -207z" />
<glyph unicode="&#xde;" horiz-adv-x="1230" d="M190 0v1454h105v-295h455q92 0 169.5 -39t133 -103.5t87 -145t31.5 -164.5q0 -88 -29.5 -170t-82.5 -144.5t-129 -100.5t-168 -38h-467v-254h-105zM295 350h465q72 0 129 31t97 81t61.5 113.5t21.5 131.5q0 70 -25.5 134t-69.5 113.5t-102.5 79t-126.5 29.5h-450v-713z " />
<glyph unicode="&#xdf;" horiz-adv-x="1124" d="M160 0v1051q0 92 29.5 167.5t82 130t126 84t159.5 29.5q80 0 149.5 -24.5t120 -67.5t79 -103.5t28.5 -129.5q0 -55 -17.5 -106.5t-48 -93.5t-72.5 -71.5t-89 -40.5q160 -35 246.5 -142.5t86.5 -262.5q0 -203 -149.5 -313.5t-409.5 -118.5v94q211 4 333 90t122 254 q0 78 -27.5 141.5t-77 109.5t-118 70.5t-150.5 24.5h-35v96h33q59 0 109.5 18.5t87.5 52.5t57.5 80t20.5 101q0 57 -21.5 103.5t-60.5 79t-90.5 50t-108.5 17.5q-72 0 -126 -25.5t-92 -69.5t-57.5 -105.5t-19.5 -133.5v-1036h-100z" />
<glyph unicode="&#xe0;" horiz-adv-x="1099" d="M72 309q0 70 32.5 127.5t91 99.5t140.5 65.5t180 23.5q86 0 173 -15.5t157 -42.5v105q0 152 -86 240.5t-234 88.5q-78 0 -165 -32.5t-177 -94.5l-39 70q205 139 390 139q193 0 303 -111.5t110 -307.5v-521q0 -51 45 -51v-92q-10 -2 -21 -3t-20 -1q-41 0 -65.5 27.5 t-28.5 66.5v88q-74 -96 -188.5 -147t-247.5 -51q-74 0 -137.5 25.5t-111.5 69.5t-74.5 104.5t-26.5 129.5zM170 315q0 -53 20.5 -100t57.5 -81t87 -53.5t107 -19.5q119 0 218.5 45.5t152.5 118.5q33 43 33 82v189q-74 29 -154 43t-166 14q-80 0 -145.5 -17.5t-112.5 -48 t-72.5 -74.5t-25.5 -98zM362 1495h117l127 -174l-69 -33z" />
<glyph unicode="&#xe1;" horiz-adv-x="1099" d="M72 309q0 70 32.5 127.5t91 99.5t140.5 65.5t180 23.5q86 0 173 -15.5t157 -42.5v105q0 152 -86 240.5t-234 88.5q-78 0 -165 -32.5t-177 -94.5l-39 70q205 139 390 139q193 0 303 -111.5t110 -307.5v-521q0 -51 45 -51v-92q-10 -2 -21 -3t-20 -1q-41 0 -65.5 27.5 t-28.5 66.5v88q-74 -96 -188.5 -147t-247.5 -51q-74 0 -137.5 25.5t-111.5 69.5t-74.5 104.5t-26.5 129.5zM170 315q0 -53 20.5 -100t57.5 -81t87 -53.5t107 -19.5q119 0 218.5 45.5t152.5 118.5q33 43 33 82v189q-74 29 -154 43t-166 14q-80 0 -145.5 -17.5t-112.5 -48 t-72.5 -74.5t-25.5 -98zM461 1321l125 174h119l-173 -207z" />
<glyph unicode="&#xe2;" horiz-adv-x="1099" d="M72 309q0 70 32.5 127.5t91 99.5t140.5 65.5t180 23.5q86 0 173 -15.5t157 -42.5v105q0 152 -86 240.5t-234 88.5q-78 0 -165 -32.5t-177 -94.5l-39 70q205 139 390 139q193 0 303 -111.5t110 -307.5v-521q0 -51 45 -51v-92q-10 -2 -21 -3t-20 -1q-41 0 -65.5 27.5 t-28.5 66.5v88q-74 -96 -188.5 -147t-247.5 -51q-74 0 -137.5 25.5t-111.5 69.5t-74.5 104.5t-26.5 129.5zM170 315q0 -53 20.5 -100t57.5 -81t87 -53.5t107 -19.5q119 0 218.5 45.5t152.5 118.5q33 43 33 82v189q-74 29 -154 43t-166 14q-80 0 -145.5 -17.5t-112.5 -48 t-72.5 -74.5t-25.5 -98zM299 1329l197 166h75l199 -166l-61 -35l-174 129l-175 -129z" />
<glyph unicode="&#xe3;" horiz-adv-x="1099" d="M72 309q0 70 32.5 127.5t91 99.5t140.5 65.5t180 23.5q86 0 173 -15.5t157 -42.5v105q0 152 -86 240.5t-234 88.5q-78 0 -165 -32.5t-177 -94.5l-39 70q205 139 390 139q193 0 303 -111.5t110 -307.5v-521q0 -51 45 -51v-92q-10 -2 -21 -3t-20 -1q-41 0 -65.5 27.5 t-28.5 66.5v88q-74 -96 -188.5 -147t-247.5 -51q-74 0 -137.5 25.5t-111.5 69.5t-74.5 104.5t-26.5 129.5zM170 315q0 -53 20.5 -100t57.5 -81t87 -53.5t107 -19.5q119 0 218.5 45.5t152.5 118.5q33 43 33 82v189q-74 29 -154 43t-166 14q-80 0 -145.5 -17.5t-112.5 -48 t-72.5 -74.5t-25.5 -98zM227 1309q0 8 6.5 35.5t26 57.5t53 53.5t88.5 23.5q41 0 73 -13.5t60.5 -29t58.5 -27.5t69 -12q41 0 64.5 14t34.5 31.5t14 33t3 19.5h70q0 -10 -7 -37.5t-26.5 -56.5t-57 -52.5t-98.5 -23.5q-45 0 -79.5 12.5t-63.5 27.5t-56.5 28.5t-58.5 13.5 q-35 0 -55 -14.5t-30.5 -32t-14.5 -32.5t-4 -19h-70z" />
<glyph unicode="&#xe4;" horiz-adv-x="1099" d="M72 309q0 70 32.5 127.5t91 99.5t140.5 65.5t180 23.5q86 0 173 -15.5t157 -42.5v105q0 152 -86 240.5t-234 88.5q-78 0 -165 -32.5t-177 -94.5l-39 70q205 139 390 139q193 0 303 -111.5t110 -307.5v-521q0 -51 45 -51v-92q-10 -2 -21 -3t-20 -1q-41 0 -65.5 27.5 t-28.5 66.5v88q-74 -96 -188.5 -147t-247.5 -51q-74 0 -137.5 25.5t-111.5 69.5t-74.5 104.5t-26.5 129.5zM170 315q0 -53 20.5 -100t57.5 -81t87 -53.5t107 -19.5q119 0 218.5 45.5t152.5 118.5q33 43 33 82v189q-74 29 -154 43t-166 14q-80 0 -145.5 -17.5t-112.5 -48 t-72.5 -74.5t-25.5 -98zM350 1311v180h90v-180h-90zM629 1311v180h90v-180h-90z" />
<glyph unicode="&#xe5;" horiz-adv-x="1099" d="M72 309q0 70 32.5 127.5t91 99.5t140.5 65.5t180 23.5q86 0 173 -15.5t157 -42.5v105q0 152 -86 240.5t-234 88.5q-78 0 -165 -32.5t-177 -94.5l-39 70q205 139 390 139q193 0 303 -111.5t110 -307.5v-521q0 -51 45 -51v-92q-10 -2 -21 -3t-20 -1q-41 0 -65.5 27.5 t-28.5 66.5v88q-74 -96 -188.5 -147t-247.5 -51q-74 0 -137.5 25.5t-111.5 69.5t-74.5 104.5t-26.5 129.5zM170 315q0 -53 20.5 -100t57.5 -81t87 -53.5t107 -19.5q119 0 218.5 45.5t152.5 118.5q33 43 33 82v189q-74 29 -154 43t-166 14q-80 0 -145.5 -17.5t-112.5 -48 t-72.5 -74.5t-25.5 -98zM393 1368q0 55 40 91t99 36t99.5 -36t40.5 -91q0 -57 -40 -93t-100 -36q-59 0 -99 36t-40 93zM451 1368q0 -35 23.5 -58.5t57.5 -23.5q33 0 58.5 23.5t25.5 58.5q0 37 -24.5 58.5t-59.5 21.5t-58 -21.5t-23 -58.5z" />
<glyph unicode="&#xe6;" horiz-adv-x="1904" d="M72 309q0 70 32.5 127.5t91 99.5t139.5 65.5t179 23.5q72 0 145.5 -11.5t137.5 -29.5q4 43 13 87t26 85q-23 115 -104 180t-206 65q-78 0 -165 -32.5t-177 -94.5l-41 70q207 139 392 139q135 0 228 -59t138 -168q66 102 174.5 164.5t239.5 62.5q113 0 209 -43 t166.5 -118.5t110.5 -176t40 -213.5q0 -6 -1 -21t-1 -19h-944q6 -92 43 -171t95.5 -136.5t134 -90.5t159.5 -33q55 0 109.5 15.5t100.5 42t82 64.5t56 83l90 -24q-25 -57 -68.5 -105.5t-102 -83.5t-128 -54t-143.5 -19q-137 0 -249.5 65.5t-184.5 173.5q-33 -63 -86 -108 t-116.5 -75t-132.5 -43t-132 -13q-74 0 -137.5 25.5t-111.5 69.5t-74.5 104.5t-26.5 129.5zM170 315q0 -53 20.5 -100t57.5 -81t87 -53.5t107 -19.5q119 0 219.5 44.5t151.5 119.5q31 39 33 72q-23 47 -35 104.5t-14 110.5q-129 41 -271 41q-160 0 -258 -65.5t-98 -172.5z M895 567h846q-6 94 -41 174t-92.5 137.5t-132 89t-160.5 31.5t-161 -32.5t-131 -90t-90 -136t-38 -173.5z" />
<glyph unicode="&#xe7;" horiz-adv-x="1116" d="M86 537q0 113 39 213t108.5 173.5t166 116.5t210.5 43q145 0 256 -65.5t166 -181.5l-100 -33q-47 88 -134 138t-192 50q-88 0 -163.5 -34.5t-132 -96t-89.5 -144.5t-33 -179t34 -181.5t90.5 -148t133 -99t162.5 -36.5q55 0 109.5 16t100.5 43t80 62.5t46 74.5l100 -28 q-20 -53 -59 -99.5t-92 -80t-118.5 -55t-135.5 -23.5l-53 -91q18 8 41.5 10.5t40.5 2.5q70 0 108.5 -31t38.5 -90q0 -66 -49 -99.5t-141 -33.5q-59 0 -109.5 11t-89.5 28l29 55q29 -14 77 -26.5t101 -12.5q119 0 119 76q0 41 -28 57.5t-73 16.5q-43 0 -90 -10.5t-76 -18.5 l86 156q-104 8 -193 54t-153.5 121.5t-101.5 173t-37 206.5z" />
<glyph unicode="&#xe8;" horiz-adv-x="1193" d="M86 537q0 113 40 212t109.5 173.5t165 117.5t205.5 43q113 0 209 -44t166 -118.5t108.5 -174t38.5 -209.5v-25.5t-2 -19.5h-933q6 -92 42.5 -171t93 -136.5t130 -90.5t157.5 -33q55 0 108.5 15.5t99.5 42t82 64.5t57 83l90 -24q-23 -57 -67 -105.5t-102.5 -83.5t-128 -54 t-143.5 -19q-113 0 -209 44t-166.5 120.5t-110.5 177t-40 215.5zM190 573h840q-6 94 -42 172t-92 134.5t-130 88t-158 31.5t-157.5 -31.5t-130 -88t-90 -135t-40.5 -171.5zM432 1495h117l127 -174l-70 -33z" />
<glyph unicode="&#xe9;" horiz-adv-x="1193" d="M86 537q0 113 40 212t109.5 173.5t165 117.5t205.5 43q113 0 209 -44t166 -118.5t108.5 -174t38.5 -209.5v-25.5t-2 -19.5h-933q6 -92 42.5 -171t93 -136.5t130 -90.5t157.5 -33q55 0 108.5 15.5t99.5 42t82 64.5t57 83l90 -24q-23 -57 -67 -105.5t-102.5 -83.5t-128 -54 t-143.5 -19q-113 0 -209 44t-166.5 120.5t-110.5 177t-40 215.5zM190 573h840q-6 94 -42 172t-92 134.5t-130 88t-158 31.5t-157.5 -31.5t-130 -88t-90 -135t-40.5 -171.5zM530 1321l125 174h119l-172 -207z" />
<glyph unicode="&#xea;" horiz-adv-x="1193" d="M86 537q0 113 40 212t109.5 173.5t165 117.5t205.5 43q113 0 209 -44t166 -118.5t108.5 -174t38.5 -209.5v-25.5t-2 -19.5h-933q6 -92 42.5 -171t93 -136.5t130 -90.5t157.5 -33q55 0 108.5 15.5t99.5 42t82 64.5t57 83l90 -24q-23 -57 -67 -105.5t-102.5 -83.5t-128 -54 t-143.5 -19q-113 0 -209 44t-166.5 120.5t-110.5 177t-40 215.5zM190 573h840q-6 94 -42 172t-92 134.5t-130 88t-158 31.5t-157.5 -31.5t-130 -88t-90 -135t-40.5 -171.5zM369 1329l196 166h76l199 -166l-62 -35l-174 129l-174 -129z" />
<glyph unicode="&#xeb;" horiz-adv-x="1193" d="M86 537q0 113 40 212t109.5 173.5t165 117.5t205.5 43q113 0 209 -44t166 -118.5t108.5 -174t38.5 -209.5v-25.5t-2 -19.5h-933q6 -92 42.5 -171t93 -136.5t130 -90.5t157.5 -33q55 0 108.5 15.5t99.5 42t82 64.5t57 83l90 -24q-23 -57 -67 -105.5t-102.5 -83.5t-128 -54 t-143.5 -19q-113 0 -209 44t-166.5 120.5t-110.5 177t-40 215.5zM190 573h840q-6 94 -42 172t-92 134.5t-130 88t-158 31.5t-157.5 -31.5t-130 -88t-90 -135t-40.5 -171.5zM420 1311v180h90v-180h-90zM698 1311v180h90v-180h-90z" />
<glyph unicode="&#xec;" horiz-adv-x="423" d="M39 1495h117l127 -174l-70 -33zM160 0v1065h102v-1065h-102z" />
<glyph unicode="&#xed;" horiz-adv-x="423" d="M137 1321l125 174h119l-172 -207zM160 0v1065h102v-1065h-102z" />
<glyph unicode="&#xee;" horiz-adv-x="423" d="M-25 1329l197 166h76l198 -166l-61 -35l-174 129l-174 -129zM160 0v1065h102v-1065h-102z" />
<glyph unicode="&#xef;" horiz-adv-x="423" d="M27 1311v180h90v-180h-90zM160 0v1065h102v-1065h-102zM305 1311v180h90v-180h-90z" />
<glyph unicode="&#xf0;" horiz-adv-x="1226" d="M90 475q0 100 40 190.5t108.5 158t159.5 107.5t196 40q145 0 262 -72t172 -188q-18 135 -79.5 272t-207.5 274l-237 -151l-37 51l229 141q-59 49 -128.5 98.5t-155.5 98.5h145q61 -37 115.5 -75t101.5 -79l187 119l34 -49l-176 -111q94 -90 155.5 -185t96.5 -190.5 t48.5 -191.5t13.5 -190q0 -123 -42 -225.5t-114 -178.5t-168 -117.5t-203 -41.5q-106 0 -200.5 38.5t-164 106.5t-110.5 158t-41 192zM195 473q0 -84 32.5 -156.5t88 -127t131 -86t161.5 -31.5t163 33.5t134.5 92t90 136.5t32.5 164q0 80 -32.5 149.5t-90 121.5t-132.5 83 t-161 31t-161.5 -33t-133 -88t-90 -130t-32.5 -159z" />
<glyph unicode="&#xf1;" horiz-adv-x="1179" d="M160 0v1065h96v-254q33 61 81 111.5t108.5 86t128 55t139.5 19.5q174 0 245.5 -121.5t71.5 -349.5v-612h-102v594q0 207 -58.5 301t-185.5 94q-68 0 -134.5 -24.5t-123.5 -69.5t-100 -105.5t-64 -130.5v-659h-102zM287 1309q0 8 6 35.5t25.5 57.5t53.5 53.5t89 23.5 q41 0 72.5 -13.5t60.5 -29t58.5 -27.5t68.5 -12q41 0 64.5 14t34.5 31.5t14.5 33t3.5 19.5h69q0 -10 -7 -37.5t-26.5 -56.5t-56.5 -52.5t-98 -23.5q-45 0 -80 12.5t-63.5 27.5t-56 28.5t-58.5 13.5q-35 0 -55.5 -14.5t-30.5 -32t-14.5 -32.5t-4.5 -19h-69z" />
<glyph unicode="&#xf2;" horiz-adv-x="1212" d="M86 530q0 113 40 213.5t109.5 176t165 119.5t205.5 44q111 0 205 -44t165 -119.5t110.5 -176t39.5 -213.5q0 -111 -39.5 -211t-109.5 -175.5t-165 -119.5t-206 -44q-113 0 -208 44t-164.5 119.5t-108.5 176t-39 210.5zM188 526q0 -94 33 -177t89.5 -144.5t132 -97 t161.5 -35.5t162 35.5t133 99t90 146.5t33 179q0 94 -33 177.5t-90 146t-132 99t-161 36.5t-161.5 -36.5t-132 -100t-90.5 -149t-34 -179.5zM434 1495h117l127 -174l-70 -33z" />
<glyph unicode="&#xf3;" horiz-adv-x="1212" d="M86 530q0 113 40 213.5t109.5 176t165 119.5t205.5 44q111 0 205 -44t165 -119.5t110.5 -176t39.5 -213.5q0 -111 -39.5 -211t-109.5 -175.5t-165 -119.5t-206 -44q-113 0 -208 44t-164.5 119.5t-108.5 176t-39 210.5zM188 526q0 -94 33 -177t89.5 -144.5t132 -97 t161.5 -35.5t162 35.5t133 99t90 146.5t33 179q0 94 -33 177.5t-90 146t-132 99t-161 36.5t-161.5 -36.5t-132 -100t-90.5 -149t-34 -179.5zM532 1321l125 174h119l-172 -207z" />
<glyph unicode="&#xf4;" horiz-adv-x="1212" d="M86 530q0 113 40 213.5t109.5 176t165 119.5t205.5 44q111 0 205 -44t165 -119.5t110.5 -176t39.5 -213.5q0 -111 -39.5 -211t-109.5 -175.5t-165 -119.5t-206 -44q-113 0 -208 44t-164.5 119.5t-108.5 176t-39 210.5zM188 526q0 -94 33 -177t89.5 -144.5t132 -97 t161.5 -35.5t162 35.5t133 99t90 146.5t33 179q0 94 -33 177.5t-90 146t-132 99t-161 36.5t-161.5 -36.5t-132 -100t-90.5 -149t-34 -179.5zM371 1329l196 166h76l199 -166l-62 -35l-174 129l-174 -129z" />
<glyph unicode="&#xf5;" horiz-adv-x="1212" d="M86 530q0 113 40 213.5t109.5 176t165 119.5t205.5 44q111 0 205 -44t165 -119.5t110.5 -176t39.5 -213.5q0 -111 -39.5 -211t-109.5 -175.5t-165 -119.5t-206 -44q-113 0 -208 44t-164.5 119.5t-108.5 176t-39 210.5zM188 526q0 -94 33 -177t89.5 -144.5t132 -97 t161.5 -35.5t162 35.5t133 99t90 146.5t33 179q0 94 -33 177.5t-90 146t-132 99t-161 36.5t-161.5 -36.5t-132 -100t-90.5 -149t-34 -179.5zM299 1309q0 8 6 35.5t25.5 57.5t53.5 53.5t89 23.5q41 0 73 -13.5t60.5 -29t58 -27.5t68.5 -12q41 0 64.5 14t35 31.5t14.5 33 t3 19.5h70q0 -10 -7.5 -37.5t-27 -56.5t-56.5 -52.5t-98 -23.5q-45 0 -80 12.5t-63.5 27.5t-56 28.5t-58.5 13.5q-35 0 -55.5 -14.5t-30.5 -32t-14 -32.5t-4 -19h-70z" />
<glyph unicode="&#xf6;" horiz-adv-x="1212" d="M86 530q0 113 40 213.5t109.5 176t165 119.5t205.5 44q111 0 205 -44t165 -119.5t110.5 -176t39.5 -213.5q0 -111 -39.5 -211t-109.5 -175.5t-165 -119.5t-206 -44q-113 0 -208 44t-164.5 119.5t-108.5 176t-39 210.5zM188 526q0 -94 33 -177t89.5 -144.5t132 -97 t161.5 -35.5t162 35.5t133 99t90 146.5t33 179q0 94 -33 177.5t-90 146t-132 99t-161 36.5t-161.5 -36.5t-132 -100t-90.5 -149t-34 -179.5zM422 1311v180h90v-180h-90zM700 1311v180h91v-180h-91z" />
<glyph unicode="&#xf7;" horiz-adv-x="1105" d="M141 526v88h826v-88h-826zM508 166v164h90v-164h-90zM508 807v166h90v-166h-90z" />
<glyph unicode="&#xf8;" horiz-adv-x="1212" d="M86 530q0 113 40 213.5t109.5 176t165 119.5t205.5 44q74 0 141.5 -21.5t126.5 -57.5l46 63h81l-73 -102q92 -78 145 -190.5t53 -244.5q0 -111 -39.5 -211t-109.5 -175.5t-165 -119.5t-206 -44q-78 0 -144.5 20t-125.5 57l-45 -59h-78l70 98q-92 78 -144.5 190.5 t-52.5 243.5zM188 526q0 -109 41 -198.5t111 -153.5l481 750q-47 33 -101 50t-114 17q-86 0 -161.5 -36.5t-132 -100t-90.5 -149t-34 -179.5zM387 137q96 -65 217 -65q86 0 162 35.5t133 99t90 146.5t33 179q0 104 -41 195.5t-111 155.5z" />
<glyph unicode="&#xf9;" horiz-adv-x="1202" d="M150 451v614h102v-600q0 -393 268 -393q68 0 131.5 23.5t118.5 65.5t97 101.5t67 130.5v672h102v-922q0 -51 43 -51v-92q-10 -2 -18 -2h-12q-41 0 -73 25.5t-32 68.5v160q-70 -129 -192 -200.5t-263 -71.5q-340 0 -339 471zM418 1495h117l127 -174l-70 -33z" />
<glyph unicode="&#xfa;" horiz-adv-x="1202" d="M150 451v614h102v-600q0 -393 268 -393q68 0 131.5 23.5t118.5 65.5t97 101.5t67 130.5v672h102v-922q0 -51 43 -51v-92q-10 -2 -18 -2h-12q-41 0 -73 25.5t-32 68.5v160q-70 -129 -192 -200.5t-263 -71.5q-340 0 -339 471zM514 1321l125 174h119l-172 -207z" />
<glyph unicode="&#xfb;" horiz-adv-x="1202" d="M150 451v614h102v-600q0 -393 268 -393q68 0 131.5 23.5t118.5 65.5t97 101.5t67 130.5v672h102v-922q0 -51 43 -51v-92q-10 -2 -18 -2h-12q-41 0 -73 25.5t-32 68.5v160q-70 -129 -192 -200.5t-263 -71.5q-340 0 -339 471zM352 1329l197 166h76l198 -166l-61 -35 l-174 129l-174 -129z" />
<glyph unicode="&#xfc;" horiz-adv-x="1202" d="M150 451v614h102v-600q0 -393 268 -393q68 0 131.5 23.5t118.5 65.5t97 101.5t67 130.5v672h102v-922q0 -51 43 -51v-92q-10 -2 -18 -2h-12q-41 0 -73 25.5t-32 68.5v160q-70 -129 -192 -200.5t-263 -71.5q-340 0 -339 471zM403 1311v180h91v-180h-91zM682 1311v180h90 v-180h-90z" />
<glyph unicode="&#xfd;" horiz-adv-x="1105" d="M35 1065h106l424 -965l396 965h100l-584 -1401q-23 -57 -73 -89t-136 -32h-17t-20 2v95q10 -2 31 -2q20 0 37.5 2t34.5 10q12 6 22.5 17t28.5 46t47 102.5t78 184.5zM492 1321l124 174h119l-172 -207z" />
<glyph unicode="&#xfe;" horiz-adv-x="1234" d="M160 -436v1890h104v-592q68 94 161 158.5t224 64.5q117 0 210 -50t157.5 -130t99.5 -179.5t35 -197.5q-2 -111 -43 -211t-110.5 -177t-164 -123t-202.5 -46q-59 0 -113.5 16.5t-102.5 45t-86 65.5t-65 80v-614h-104zM264 350q0 -55 36 -106t90 -90t118.5 -62.5 t120.5 -23.5q92 0 168.5 38.5t132 103t86.5 147.5t31 171q0 90 -29 173t-82 147.5t-127 103.5t-164 39q-68 0 -125 -22.5t-105 -60.5t-86 -87t-65 -102v-369z" />
<glyph unicode="&#xff;" horiz-adv-x="1105" d="M35 1065h106l424 -965l396 965h100l-584 -1401q-23 -57 -73 -89t-136 -32h-17t-20 2v95q10 -2 31 -2q20 0 37.5 2t34.5 10q12 6 22.5 17t28.5 46t47 102.5t78 184.5zM381 1311v180h90v-180h-90zM659 1311v180h91v-180h-91z" />
<glyph unicode="&#x131;" horiz-adv-x="423" d="M160 0v1065h102v-1065h-102z" />
<glyph unicode="&#x152;" horiz-adv-x="2402" d="M90 727q0 145 52.5 278.5t143.5 235.5t216 162.5t270 60.5q102 0 193.5 -33.5t165 -91t129 -134.5t90.5 -163v412h942v-94h-840v-569h729v-97h-729v-600h858v-94h-960v410q-35 -88 -92.5 -165t-132 -133.5t-164 -89t-187.5 -32.5q-152 0 -277.5 62.5t-216 166 t-140.5 236.5t-50 272zM195 727q0 -125 42 -240.5t118.5 -204.5t183 -142.5t233.5 -53.5q131 0 236.5 55.5t180.5 146.5t116 205.5t41 235.5q0 125 -43 239.5t-120 204t-181.5 142.5t-229.5 53q-131 0 -237.5 -55.5t-182.5 -146.5t-116.5 -205.5t-40.5 -233.5z" />
<glyph unicode="&#x153;" horiz-adv-x="2129" d="M86 528q0 117 40 217.5t110.5 176t166 118.5t205.5 43q80 0 153 -25.5t133 -72.5t106.5 -113.5t70.5 -148.5q53 170 177 265t296 95q111 0 206 -42t165 -119.5t109.5 -186t39.5 -243.5h-936q8 -90 45 -168t96.5 -136.5t137.5 -92.5t164 -34q57 0 112.5 15.5t101.5 42 t81 64.5t53 83l88 -24q-25 -59 -70 -107.5t-103 -82.5t-128 -53t-141 -19q-80 0 -156 25.5t-140.5 73.5t-113.5 113.5t-80 145.5q-31 -82 -79 -148.5t-108.5 -112.5t-133 -71.5t-152.5 -25.5q-109 0 -203 43t-163.5 116.5t-109.5 174t-40 214.5zM188 524q0 -96 33 -178 t89.5 -143.5t132 -96t161.5 -34.5q88 0 164 35.5t132 97t89 145.5t33 180t-33 180.5t-88 147t-131 98t-162 35.5t-162.5 -36.5t-134 -100t-90.5 -148.5t-33 -182zM1128 567h836q-6 94 -41 174t-91 137.5t-131 89t-159 31.5t-157.5 -32.5t-129 -90t-89 -136t-38.5 -173.5z " />
<glyph unicode="&#x178;" horiz-adv-x="1325" d="M39 1454h115l508 -805l509 805h117l-573 -905v-549h-105v553zM477 1696v180h90v-180h-90zM756 1696v180h90v-180h-90z" />
<glyph unicode="&#x192;" horiz-adv-x="1062" d="M61 -287l56 68q35 -29 75.5 -39t81.5 -10q39 0 76 15t65.5 43t47 66t18.5 83v917h-151v84h151v160q0 197 80 306.5t221 109.5q59 0 116.5 -18.5t96.5 -49.5l-39 -74q-27 23 -69.5 37t-87.5 14q-104 0 -159.5 -82.5t-55.5 -240.5v-162h303v-84h-303v-915q0 -68 -26 -123.5 t-69 -95t-96 -62t-108 -22.5q-66 0 -122.5 17t-101.5 58z" />
<glyph unicode="&#x2c6;" horiz-adv-x="655" d="M92 1329l197 166h76l198 -166l-61 -35l-174 129l-174 -129z" />
<glyph unicode="&#x2c7;" horiz-adv-x="655" d="M92 1460l62 35l174 -129l174 129l61 -35l-198 -166h-76z" />
<glyph unicode="&#x2d8;" horiz-adv-x="550" d="M94 1495h68q0 -51 34.5 -91t79.5 -40q41 0 75 38t40 93h68q0 -39 -14.5 -74t-40 -60.5t-58.5 -39.5t-70 -14t-70.5 14t-58 39.5t-39 60.5t-14.5 74z" />
<glyph unicode="&#x2d9;" horiz-adv-x="299" d="M102 1311v184h95v-184h-95z" />
<glyph unicode="&#x2da;" horiz-adv-x="499" d="M111 1368q0 55 39.5 91t99.5 36q59 0 99 -36t40 -91q0 -57 -40 -93t-99 -36t-99 36t-40 93zM168 1368q0 -35 23.5 -58.5t58.5 -23.5q33 0 58.5 23.5t25.5 58.5q0 37 -24.5 58.5t-59.5 21.5t-58.5 -21.5t-23.5 -58.5z" />
<glyph unicode="&#x2db;" horiz-adv-x="462" d="M106 -207q0 59 47.5 115.5t151.5 124.5l39 -33q-92 -59 -130 -102t-38 -91q0 -78 100 -92l-32 -61q-66 14 -102 51t-36 88z" />
<glyph unicode="&#x2dc;" horiz-adv-x="813" d="M96 1309q0 8 6.5 35.5t25.5 57.5t53 53.5t89 23.5q41 0 73 -13.5t60.5 -29t58.5 -27.5t68 -12q41 0 64.5 14t35 31.5t14.5 33t3 19.5h70q0 -10 -7.5 -37.5t-26.5 -56.5t-56.5 -52.5t-98.5 -23.5q-45 0 -79.5 12.5t-63.5 27.5t-56.5 28.5t-58.5 13.5q-35 0 -55 -14.5 t-30.5 -32t-14.5 -32.5t-4 -19h-70z" />
<glyph unicode="&#x2dd;" horiz-adv-x="647" d="M94 1321l121 174h109l-170 -207zM330 1321l123 174h108l-170 -207z" />
<glyph unicode="&#x3a9;" horiz-adv-x="1568" d="M96 0v96h412q-186 92 -291.5 266.5t-105.5 385.5q0 141 51 271t141 228.5t213 157.5t268 59t268.5 -59t213.5 -157.5t141 -228.5t51 -271q0 -104 -27.5 -203t-79 -182.5t-126 -152.5t-166.5 -114h414v-96h-592v96q113 27 200.5 93.5t147 156.5t91.5 194.5t32 207.5 q0 115 -39 226t-113 198.5t-179.5 140.5t-236.5 53t-236.5 -53t-179 -140.5t-112.5 -199t-39 -225.5q0 -102 32 -207t91 -195t147 -156.5t201 -93.5v-96h-592z" />
<glyph unicode="&#x3c0;" horiz-adv-x="1169" d="M51 971v94h1034v-94h-225v-760q0 -59 35 -94t94 -35q23 0 53.5 5t57.5 15l20 -82q-35 -14 -86 -23t-88 -9q-86 0 -136 52t-50 140v791h-445v-971h-100v971h-164z" />
<glyph unicode="&#x400;" d="M193 0v1454h950v-94h-846v-572h739v-90h-739v-604h864v-94h-968zM524 1880h117l127 -174l-70 -33z" />
<glyph unicode="&#x401;" d="M193 0v1454h950v-94h-846v-572h739v-90h-739v-604h864v-94h-968zM512 1696v180h90v-180h-90zM791 1696v180h90v-180h-90z" />
<glyph unicode="&#x402;" horiz-adv-x="1417" d="M33 1360v94h1059v-94h-568v-588q141 135 373 135q221 0 341 -118.5t120 -348.5q0 -225 -112.5 -342.5t-330.5 -117.5q-59 0 -110 10t-107 35l33 94q57 -29 97 -38t87 -9q164 0 248 94t84 274q0 182 -91 276.5t-271 94.5q-104 0 -193.5 -36t-167.5 -113v-662h-104v1360 h-387z" />
<glyph unicode="&#x403;" horiz-adv-x="1073" d="M193 0v1454h837v-94h-733v-1360h-104zM530 1704l125 174h119l-172 -207z" />
<glyph unicode="&#x404;" horiz-adv-x="1431" d="M90 737q0 131 46 261t134 232.5t218 167t300 64.5q205 0 341.5 -89t203.5 -228l-86 -49q-39 76 -92 127t-114.5 82.5t-128 46t-132.5 14.5q-135 0 -239.5 -49t-178 -131t-114.5 -185.5t-49 -212.5h759v-90h-761q6 -123 52 -234.5t124 -195.5t184.5 -134t228.5 -50 q68 0 137.5 16.5t135 51t122 89t93.5 128.5l90 -43q-37 -82 -98.5 -145.5t-139 -106.5t-167 -64.5t-181.5 -21.5q-154 0 -280.5 65.5t-218 171t-140.5 239.5t-49 273z" />
<glyph unicode="&#x405;" horiz-adv-x="1239" d="M72 205l55 84q92 -96 225 -152.5t299 -56.5q190 0 298 69.5t108 210.5q0 72 -29 122t-85 87t-142 63.5t-201 51.5q-117 25 -206 52.5t-149.5 69.5t-91 101.5t-30.5 149.5q0 98 38 174t105.5 128t161.5 78.5t209 26.5q141 0 251.5 -42t201.5 -128l-54 -82 q-141 158 -399 158q-213 0 -310.5 -81t-97.5 -218q0 -70 25 -116t77 -78.5t132 -55t192 -47.5q117 -25 212.5 -54.5t162 -74.5t102 -110.5t35.5 -161.5t-37.5 -168t-106.5 -120t-164 -72.5t-212 -24.5q-340 0 -575 217z" />
<glyph unicode="&#x406;" horiz-adv-x="487" d="M193 0v1454h104v-1454h-104z" />
<glyph unicode="&#x407;" horiz-adv-x="487" d="M59 1696v180h91v-180h-91zM193 0v1454h104v-1454h-104zM338 1696v180h90v-180h-90z" />
<glyph unicode="&#x408;" horiz-adv-x="980" d="M33 68l33 84q51 -35 122.5 -56.5t159.5 -21.5q119 0 188.5 43t106.5 125t48 201.5t11 271.5v739h105v-739q0 -166 -14.5 -302.5t-62.5 -232.5t-138 -149.5t-244 -53.5q-184 0 -315 91z" />
<glyph unicode="&#x409;" horiz-adv-x="2035" d="M12 94q59 2 113.5 39t102.5 144.5t87 305t66 519.5l29 352h714v-633h412q211 0 325.5 -108.5t114.5 -296.5q0 -92 -29.5 -168t-87 -131.5t-138.5 -86t-181 -30.5h-520v1360h-514l-23 -273q-25 -295 -62.5 -502.5t-92 -338.5t-129 -191.5t-172.5 -60.5zM1124 94h416 q86 0 149.5 25.5t103.5 69.5t59.5 102.5t19.5 124.5q0 63 -17.5 120.5t-57.5 100.5t-103.5 67.5t-157.5 24.5h-412v-635z" />
<glyph unicode="&#x40a;" horiz-adv-x="2127" d="M193 0v1454h104v-633h790v633h105v-633h436q209 0 324.5 -108.5t115.5 -296.5q0 -92 -29.5 -168t-87 -131.5t-138 -86t-181.5 -30.5h-545v727h-790v-727h-104zM1192 94h440q86 0 148.5 25.5t102.5 69.5t59.5 102.5t19.5 124.5q0 63 -17.5 120.5t-56.5 100.5t-103.5 67.5 t-156.5 24.5h-436v-635z" />
<glyph unicode="&#x40b;" horiz-adv-x="1431" d="M33 1360v94h1059v-94h-568v-574q80 51 179.5 79t205.5 28q219 0 329 -107.5t110 -343.5v-442h-101v422q0 201 -78.5 289t-257.5 88q-109 0 -211 -31t-176 -84v-684h-104v1360h-387z" />
<glyph unicode="&#x40c;" horiz-adv-x="1204" d="M193 0v1454h104v-655h254l471 655h123l-504 -698l563 -756h-123l-524 702h-260v-702h-104zM573 1704l125 174h119l-172 -207z" />
<glyph unicode="&#x40d;" horiz-adv-x="1509" d="M193 0v1454h104v-1298l954 1298h88v-1454h-104v1278l-942 -1278h-100zM600 1880h117l127 -174l-70 -33z" />
<glyph unicode="&#x40e;" horiz-adv-x="1269" d="M45 1454h113l485 -995l475 995h113l-541 -1118q-49 -102 -91 -170t-83 -108t-85 -57t-95 -17q-41 0 -80 8t-72 28v97q31 -20 69 -29.5t75 -9.5q39 0 71.5 12t63.5 43t61.5 82t67.5 127zM354 1876h70q0 -51 61.5 -91t159.5 -40q94 0 155.5 37t65.5 94h68q0 -86 -75 -140.5 t-214 -54.5q-141 0 -216 54.5t-75 140.5z" />
<glyph unicode="&#x40f;" horiz-adv-x="1415" d="M193 0v1454h104v-1360h821v1360h105v-1454h-463v-381h-105v381h-462z" />
<glyph unicode="&#x410;" horiz-adv-x="1382" d="M29 0l618 1454h90l615 -1454h-111l-203 479h-694l-203 -479h-112zM369 565h641l-318 762z" />
<glyph unicode="&#x411;" horiz-adv-x="1329" d="M193 0v1454h964v-94h-860v-539h518q209 0 324.5 -108.5t115.5 -296.5q0 -92 -29.5 -168t-87 -131.5t-138 -86t-183.5 -30.5h-624zM297 94h520q86 0 149.5 25.5t103.5 69.5t59.5 102.5t19.5 124.5q0 63 -17.5 120.5t-56.5 100.5t-103.5 67.5t-156.5 24.5h-518v-635z" />
<glyph unicode="&#x412;" horiz-adv-x="1357" d="M174 0v1454h678q76 0 137.5 -32.5t104.5 -85t66.5 -119t23.5 -134.5q0 -111 -55.5 -203t-153.5 -135q125 -37 197.5 -138t72.5 -230q0 -80 -30.5 -148.5t-84 -120t-125 -80t-151.5 -28.5h-680zM279 94h575q61 0 113.5 24.5t90.5 66.5t60.5 95.5t22.5 110.5t-20.5 111.5 t-57.5 96.5t-87 66.5t-108 24.5h-589v-596zM279 778h532q59 0 108.5 24.5t85 64.5t56 93.5t20.5 108.5q0 59 -19.5 111.5t-53 92.5t-80.5 63.5t-105 23.5h-544v-582z" />
<glyph unicode="&#x413;" horiz-adv-x="1073" d="M193 0v1454h837v-94h-733v-1360h-104z" />
<glyph unicode="&#x414;" horiz-adv-x="1425" d="M35 94h43q39 6 72.5 23.5t63.5 56.5t55.5 107.5t49 178t44 267.5t38.5 375l31 352h756v-1360h190v-473h-94v379h-1155v-379h-94v473zM254 94h829v1266h-555l-22 -273q-18 -225 -41 -396t-52.5 -291.5t-68.5 -195.5t-90 -110z" />
<glyph unicode="&#x415;" d="M193 0v1454h950v-94h-846v-572h739v-90h-739v-604h864v-94h-968z" />
<glyph unicode="&#x416;" horiz-adv-x="1886" d="M8 0l492 756l-432 698h122l398 -655h299v655h112v-655h299l398 655h123l-435 -698l492 -756h-123l-444 702h-310v-702h-112v702h-309l-447 -702h-123z" />
<glyph unicode="&#x417;" horiz-adv-x="1079" d="M57 225l84 66q49 -92 149.5 -148.5t225.5 -56.5q82 0 148.5 22.5t114.5 65.5t75 103.5t27 134.5q0 160 -116 251t-327 91h-88v94h88q184 0 282.5 71.5t98.5 202.5q0 123 -83 185.5t-222 62.5q-111 0 -198 -43t-130 -108l-71 65q55 78 158.5 129t238.5 51q195 0 302.5 -88 t107.5 -250q0 -127 -63.5 -212t-192.5 -115q154 -25 236.5 -129.5t82.5 -253.5q0 -94 -35 -173t-98.5 -135.5t-150.5 -87t-193 -30.5q-152 0 -271.5 64.5t-179.5 170.5z" />
<glyph unicode="&#x418;" horiz-adv-x="1531" d="M193 0v1454h104v-1298l954 1298h88v-1454h-104v1278l-942 -1278h-100z" />
<glyph unicode="&#x419;" horiz-adv-x="1531" d="M193 0v1454h104v-1298l954 1298h88v-1454h-104v1278l-942 -1278h-100zM479 1876h70q0 -51 62.5 -91t158.5 -40q94 0 156.5 37t66.5 94h68q-2 -86 -76 -140.5t-215 -54.5t-215 54.5t-76 140.5z" />
<glyph unicode="&#x41a;" horiz-adv-x="1204" d="M193 0v1454h104v-655h254l471 655h123l-504 -698l563 -756h-123l-524 702h-260v-702h-104z" />
<glyph unicode="&#x41b;" horiz-adv-x="1316" d="M12 94q59 2 113.5 39t102.5 144.5t87 305t66 519.5l29 352h714v-1454h-104v1360h-514l-23 -273q-25 -295 -62.5 -502.5t-92 -338.5t-129 -191.5t-172.5 -60.5z" />
<glyph unicode="&#x41c;" horiz-adv-x="1804" d="M193 0v1454h104l606 -1040l606 1040h105v-1454h-105v1257l-573 -981h-66l-573 981v-1257h-104z" />
<glyph unicode="&#x41d;" horiz-adv-x="1509" d="M193 0v1454h104v-663h917v663h105v-1454h-105v696h-917v-696h-104z" />
<glyph unicode="&#x41e;" horiz-adv-x="1542" d="M90 727q0 145 52.5 278.5t143.5 235.5t216 162.5t270 60.5q152 0 278 -64.5t215 -169t138 -236.5t49 -267q0 -147 -52 -280.5t-143.5 -234.5t-216.5 -161.5t-270 -60.5q-152 0 -276.5 63.5t-215 166t-139.5 235.5t-49 272zM195 727q0 -125 42 -240.5t118.5 -204.5 t183 -142.5t233.5 -53.5q131 0 236.5 55.5t180.5 146.5t116 205.5t41 233.5q0 125 -43 240.5t-120 205t-181.5 142.5t-229.5 53q-131 0 -237.5 -55.5t-182.5 -146.5t-116.5 -205.5t-40.5 -233.5z" />
<glyph unicode="&#x41f;" horiz-adv-x="1474" d="M193 0v1454h1089v-1454h-104v1360h-881v-1360h-104z" />
<glyph unicode="&#x420;" horiz-adv-x="1273" d="M193 0v1454h598q92 0 169.5 -39t134 -103.5t88 -145.5t31.5 -162q0 -88 -29.5 -170t-83.5 -145.5t-130 -101.5t-168 -38h-506v-549h-104zM297 645h502q72 0 129 30t97 80t61.5 114.5t21.5 134.5q0 72 -25.5 136t-69.5 113.5t-102.5 78t-124.5 28.5h-489v-715z" />
<glyph unicode="&#x421;" horiz-adv-x="1413" d="M90 737q0 131 46 261t134 232.5t216 167t292 64.5q195 0 332 -89t205 -228l-86 -49q-39 76 -91.5 127t-112.5 82.5t-125.5 46t-129.5 14.5q-139 0 -245.5 -56.5t-180.5 -146.5t-111.5 -203.5t-37.5 -228.5q0 -129 45 -245.5t122.5 -206t184 -142.5t229.5 -53 q66 0 135.5 16.5t133 51t119 89t91.5 128.5l91 -43q-37 -82 -100.5 -145.5t-141.5 -106.5t-165 -64.5t-171 -21.5q-150 0 -273.5 65.5t-214 171t-140.5 239.5t-50 273z" />
<glyph unicode="&#x422;" horiz-adv-x="1239" d="M35 1360v94h1169v-94h-532v-1360h-105v1360h-532z" />
<glyph unicode="&#x423;" horiz-adv-x="1269" d="M45 1454h113l485 -995l475 995h113l-541 -1118q-49 -102 -91 -170t-83 -108t-85 -57t-95 -17q-41 0 -80 8t-72 28v97q31 -20 69 -29.5t77 -9.5t70.5 12t62.5 43t61.5 81t67.5 128z" />
<glyph unicode="&#x424;" horiz-adv-x="1509" d="M68 768q0 135 44 246.5t127 193.5t200.5 129t265.5 56v209h104v-209q143 -6 260 -54.5t200 -129.5t127 -193.5t44 -247.5q0 -139 -45 -250.5t-128 -190.5t-200 -125t-258 -52v-220h-104v220q-143 6 -260 51t-201 125t-130 191.5t-46 250.5zM174 772q0 -119 38 -213 t107.5 -161.5t167 -106.5t218.5 -45v1046q-123 -6 -221.5 -44t-167 -105.5t-105.5 -160.5t-37 -210zM809 246q119 6 216 45t166 106.5t105.5 161.5t36.5 213q0 236 -140 372t-384 148v-1046z" />
<glyph unicode="&#x425;" horiz-adv-x="1286" d="M14 1454h121l510 -661l508 661h119l-572 -737l555 -717h-118l-492 641l-493 -641h-121l555 717z" />
<glyph unicode="&#x426;" horiz-adv-x="1462" d="M193 0v1454h104v-1360h821v1360h105v-1360h192v-473h-96v379h-1126z" />
<glyph unicode="&#x427;" horiz-adv-x="1245" d="M94 1073v381h105v-364q0 -113 19.5 -193t63.5 -130t113.5 -73.5t169.5 -23.5q119 0 222.5 24.5t160.5 63.5v696h105v-1454h-105v649q-86 -39 -178 -57.5t-211 -18.5q-250 0 -357.5 129t-107.5 371z" />
<glyph unicode="&#x428;" horiz-adv-x="1882" d="M193 0v1454h104v-1360h592v1360h104v-1360h594v1360h103v-1454h-1497z" />
<glyph unicode="&#x429;" horiz-adv-x="1929" d="M193 0v1454h104v-1360h594v1360h102v-1360h594v1360h105v-1360h190v-473h-94v379h-1595z" />
<glyph unicode="&#x42a;" horiz-adv-x="1482" d="M33 1360v94h549v-571h372q221 0 344 -118t123 -323q0 -98 -32.5 -179t-93 -139t-146.5 -91t-193 -33h-479v1360h-444zM582 94h374q94 0 162 28t112 75t64.5 110.5t20.5 134.5q0 72 -19.5 135.5t-62.5 110.5t-111.5 75t-167.5 28h-372v-697z" />
<glyph unicode="&#x42b;" horiz-adv-x="1660" d="M193 0v1454h104v-571h371q223 0 345 -118t122 -323q0 -98 -33 -179t-92.5 -139t-145.5 -91t-192 -33h-479zM297 94h375q94 0 161.5 28t111.5 75t64.5 110.5t20.5 134.5q0 72 -19.5 135.5t-62.5 110.5t-112.5 75t-167.5 28h-371v-697zM1364 0v1452h104v-1452h-104z" />
<glyph unicode="&#x42c;" horiz-adv-x="1196" d="M193 0v1454h104v-571h371q223 0 345 -118t122 -323q0 -98 -33 -179t-92.5 -139t-145.5 -91t-192 -33h-479zM297 94h375q94 0 161.5 28t111.5 75t64.5 110.5t20.5 134.5q0 72 -19.5 135.5t-62.5 110.5t-112.5 75t-167.5 28h-371v-697z" />
<glyph unicode="&#x42d;" horiz-adv-x="1431" d="M68 326l88 43q39 -74 95 -128.5t121.5 -89t135.5 -51t137 -16.5q123 0 228.5 50t183.5 134t124 195.5t52 234.5h-760v90h758q-8 109 -49 212.5t-115 185.5t-177.5 131t-238.5 49q-66 0 -132 -14.5t-127.5 -46t-115 -83t-92.5 -126.5l-86 49q68 139 204 228t341 89 q168 0 298 -64.5t219 -167t134 -232.5t45 -261q0 -139 -49 -273t-139 -239.5t-217 -171t-281 -65.5q-92 0 -181 21.5t-167 64.5t-139.5 106.5t-97.5 145.5z" />
<glyph unicode="&#x42e;" horiz-adv-x="1988" d="M193 0v1454h104v-676h299q8 158 59.5 285t137.5 216t199.5 137t244.5 48q147 0 268 -55t207 -153.5t134 -233.5t48 -295q0 -170 -50 -306t-139 -232.5t-210 -147.5t-260 -51t-254 51t-199 142t-133 218t-55 281h-297v-682h-104zM700 727q0 -147 40 -266t111 -202 t169 -128t215 -45q125 0 228.5 47t175 132t111.5 203t40 259q0 147 -42 266t-115.5 202t-176 128t-221.5 45q-121 0 -220.5 -47t-169 -131t-107.5 -203t-38 -260z" />
<glyph unicode="&#x42f;" horiz-adv-x="1286" d="M66 0l380 623q-137 43 -216.5 154.5t-79.5 256.5q0 82 32.5 158t92 134t144.5 93t189 35h486v-1454h-105v602h-436l-363 -602h-124zM256 1034q0 -68 22.5 -129t65.5 -107t106.5 -74t147.5 -28h391v664h-377q-78 0 -143.5 -24.5t-112.5 -68.5t-73.5 -103.5t-26.5 -129.5z " />
<glyph unicode="&#x430;" horiz-adv-x="1101" d="M72 309q0 70 32.5 127.5t91 99.5t140.5 65.5t180 23.5q86 0 173 -15.5t157 -42.5v105q0 152 -86 240.5t-234 88.5q-78 0 -165 -32.5t-177 -94.5l-39 70q205 139 390 139q193 0 303 -111.5t110 -307.5v-521q0 -51 45 -51v-92q-10 -2 -21 -3t-20 -1q-41 0 -65.5 27.5 t-28.5 66.5v88q-74 -96 -188.5 -147t-247.5 -51q-74 0 -137.5 25.5t-111.5 69.5t-74.5 104.5t-26.5 129.5zM170 315q0 -53 20.5 -100t57.5 -81t87 -53.5t107 -19.5q119 0 218.5 45.5t152.5 118.5q33 43 33 82v189q-74 29 -154 43t-166 14q-80 0 -145.5 -17.5t-112.5 -48 t-72.5 -74.5t-25.5 -98z" />
<glyph unicode="&#x431;" horiz-adv-x="1171" d="M121 582q0 205 40 355t113.5 254.5t177 167t232.5 91.5l301 68l21 -88l-320 -74q-199 -45 -316.5 -183.5t-142.5 -394.5q57 109 153.5 170.5t235.5 61.5q106 0 191.5 -37t145 -104.5t92 -163t32.5 -211.5q0 -113 -33.5 -207t-96 -163t-154 -106.5t-207.5 -37.5 q-115 0 -201 41.5t-145.5 119.5t-89 189.5t-29.5 251.5zM227 498q0 -92 24.5 -170t73 -136.5t117 -91t156.5 -32.5t157.5 32.5t119 90t75 135t25.5 168.5q0 199 -99.5 309t-279.5 110q-80 0 -147.5 -27.5t-116.5 -80.5t-77 -131t-28 -176z" />
<glyph unicode="&#x432;" horiz-adv-x="1062" d="M164 0v1065h510q57 0 104 -21.5t81 -57.5t52.5 -84t18.5 -99q0 -76 -38 -146.5t-114 -105.5q90 -25 142.5 -95.5t52.5 -168.5q0 -61 -22.5 -113.5t-62.5 -91.5t-95.5 -60.5t-118.5 -21.5h-510zM264 80h402q45 0 83.5 17.5t66.5 47t43 68.5t15 80t-14 78t-40.5 65.5 t-64.5 46t-83 17.5h-408v-420zM264 580h369q43 0 80 16t62.5 45t39.5 66.5t14 80.5q0 80 -48 138.5t-136 58.5h-381v-405z" />
<glyph unicode="&#x433;" horiz-adv-x="831" d="M162 0v1065h624v-80h-524v-985h-100z" />
<glyph unicode="&#x434;" horiz-adv-x="1155" d="M37 90h63q43 8 76 46t60.5 118t51 209t46.5 321l33 281h589v-975h134v-416h-93v326h-872v-326h-88v416zM246 90h610v891h-393l-31 -242q-37 -285 -82 -442.5t-104 -206.5z" />
<glyph unicode="&#x435;" horiz-adv-x="1193" d="M86 537q0 113 40 212t109.5 173.5t165 117.5t205.5 43q113 0 209 -44t166 -118.5t108.5 -174t38.5 -209.5v-25.5t-2 -19.5h-933q6 -92 42.5 -171t93 -136.5t130 -90.5t157.5 -33q55 0 108.5 15.5t99.5 42t82 64.5t57 83l90 -24q-23 -57 -67 -105.5t-102.5 -83.5t-128 -54 t-143.5 -19q-113 0 -209 44t-166.5 120.5t-110.5 177t-40 215.5zM190 573h840q-6 94 -42 172t-92 134.5t-130 88t-158 31.5t-157.5 -31.5t-130 -88t-90 -135t-40.5 -171.5z" />
<glyph unicode="&#x436;" horiz-adv-x="1525" d="M29 0l360 553l-319 514h116l291 -485h236v483h102v-483h236l288 485h117l-319 -514l360 -553h-117l-315 502h-250v-502h-102v502h-250l-318 -502h-116z" />
<glyph unicode="&#x437;" horiz-adv-x="837" d="M66 133l59 74q49 -68 111.5 -101.5t154.5 -33.5q129 0 195.5 66.5t66.5 170.5q0 115 -77.5 177.5t-219.5 62.5h-71v82h71q117 0 180.5 50t63.5 144q0 80 -54 126t-153 46q-68 0 -126 -24.5t-111 -79.5l-56 59q55 66 133 98.5t166 32.5q139 0 218 -68.5t79 -180.5 q0 -96 -49 -160t-135 -80q111 -16 176.5 -96t65.5 -193q0 -72 -27 -131t-74 -102t-115.5 -67.5t-150.5 -24.5q-113 0 -190.5 40.5t-130.5 112.5z" />
<glyph unicode="&#x438;" horiz-adv-x="1196" d="M162 0v1065h100v-922l686 922h86v-1065h-102v905l-674 -905h-96z" />
<glyph unicode="&#x439;" horiz-adv-x="1196" d="M162 0v1065h100v-922l686 922h86v-1065h-102v905l-674 -905h-96zM344 1440h68q2 -55 48 -84t146 -29q98 0 141.5 26.5t51.5 86.5h67q-4 -78 -68.5 -124t-191.5 -46q-129 0 -193.5 46t-68.5 124z" />
<glyph unicode="&#x43a;" horiz-adv-x="960" d="M162 0v1065h100v-477h170l352 477h119l-391 -512l430 -553h-117l-385 506h-178v-506h-100z" />
<glyph unicode="&#x43b;" horiz-adv-x="1077" d="M16 88q51 2 93.5 32t76 107.5t60 211.5t49.5 345l29 281h591v-1065h-102v981h-393l-29 -242q-27 -217 -58.5 -359t-74.5 -226t-98.5 -120t-128.5 -38z" />
<glyph unicode="&#x43c;" horiz-adv-x="1388" d="M162 0v1065h100l432 -756l434 756h99v-1065h-101v879l-399 -697h-63l-402 697v-879h-100z" />
<glyph unicode="&#x43d;" horiz-adv-x="1175" d="M162 0v1065h100v-475h651v475h101v-1065h-101v502h-651v-502h-100z" />
<glyph unicode="&#x43e;" horiz-adv-x="1212" d="M86 530q0 113 40 213.5t109.5 176t165 119.5t205.5 44q111 0 205 -44t165 -119.5t110.5 -176t39.5 -213.5q0 -111 -39.5 -211t-109.5 -175.5t-165 -119.5t-206 -44q-113 0 -208 44t-164.5 119.5t-108.5 176t-39 210.5zM188 526q0 -94 33 -177t89.5 -144.5t132 -97 t161.5 -35.5t162 35.5t133 99t90 146.5t33 179q0 94 -33 177.5t-90 146t-132 99t-161 36.5t-161.5 -36.5t-132 -100t-90.5 -149t-34 -179.5z" />
<glyph unicode="&#x43f;" horiz-adv-x="1144" d="M162 0v1065h819v-1065h-100v975h-619v-975h-100z" />
<glyph unicode="&#x440;" horiz-adv-x="1255" d="M162 -436v1501h94v-213q66 102 173.5 166.5t229.5 64.5q111 0 205 -47t162 -123.5t105.5 -177t37.5 -205.5q0 -111 -34.5 -211t-99 -175.5t-154.5 -119.5t-199 -44q-137 0 -244.5 72.5t-173.5 176.5v-665h-102zM264 354q27 -59 68 -110t92 -90t110.5 -60.5t122.5 -21.5 q92 0 168 39t129.5 103.5t82 147t28.5 168.5q0 92 -33 175t-91 146.5t-136 101.5t-166 38q-55 0 -117.5 -23.5t-118 -63.5t-94.5 -91t-45 -108v-351z" />
<glyph unicode="&#x441;" horiz-adv-x="1116" d="M86 537q0 113 39 213t108.5 173.5t166 116.5t210.5 43q145 0 256 -65.5t166 -181.5l-100 -33q-47 88 -134 138t-192 50q-88 0 -163.5 -34.5t-132 -96t-89.5 -144.5t-33 -179t34 -181.5t90.5 -148t133 -99t162.5 -36.5q55 0 109.5 16t100.5 43t80 62.5t46 74.5l100 -28 q-20 -55 -62 -103.5t-99.5 -83.5t-127 -54t-143.5 -19q-113 0 -209 44t-166.5 120.5t-110.5 177t-40 215.5z" />
<glyph unicode="&#x442;" horiz-adv-x="962" d="M43 975v90h877v-90h-388v-975h-100v975h-389z" />
<glyph unicode="&#x443;" horiz-adv-x="1105" d="M35 1065h106l424 -965l396 965h100l-526 -1268q-29 -72 -57.5 -119t-58.5 -76.5t-63.5 -42t-72.5 -12.5q-82 0 -131 43l10 91q49 -43 114 -43q29 0 53.5 15t51.5 56t57.5 110.5t71.5 180.5z" />
<glyph unicode="&#x444;" horiz-adv-x="1388" d="M86 526q0 117 39 215.5t111.5 171t175 115.5t231.5 51v416h102v-416q129 -8 231.5 -51t175.5 -115.5t112 -171t39 -215.5q0 -121 -40 -217t-114 -166.5t-176.5 -111.5t-227.5 -49v-418h-102v418q-125 6 -227.5 47t-176 111.5t-113.5 168t-40 217.5zM190 532 q0 -102 33 -183t92.5 -139t142.5 -92t185 -40v901q-104 -6 -187 -39t-142.5 -90t-91.5 -138t-32 -180zM745 78q102 6 185.5 40t143 92t92 139t32.5 183q0 199 -122 317t-331 130v-901z" />
<glyph unicode="&#x445;" horiz-adv-x="1015" d="M35 1065h112l345 -440l16 -29l16 29l342 440h115l-414 -535l412 -530h-113l-342 438l-16 27l-16 -27l-342 -438h-113l412 530z" />
<glyph unicode="&#x446;" horiz-adv-x="1148" d="M162 0v1065h100v-975h578v975h100v-975h164v-416h-90v326h-852z" />
<glyph unicode="&#x447;" horiz-adv-x="976" d="M90 784v281h100v-264q0 -162 63.5 -230.5t192.5 -68.5q88 0 158 18.5t109 44.5v500h102v-1065h-102v461q-59 -25 -123 -37t-156 -12q-94 0 -159.5 25.5t-106.5 74.5t-59.5 117.5t-18.5 154.5z" />
<glyph unicode="&#x448;" horiz-adv-x="1533" d="M162 0v1065h100v-975h453v975h102v-975h455v975h100v-1065h-1210z" />
<glyph unicode="&#x449;" horiz-adv-x="1581" d="M162 0v1065h100v-975h453v975h102v-975h455v975h100v-975h164v-416h-92v326h-1282z" />
<glyph unicode="&#x44a;" horiz-adv-x="1163" d="M41 975v90h451v-389h256q158 0 255 -88t97 -248q0 -78 -25.5 -140.5t-73 -107.5t-112 -68.5t-139.5 -23.5h-359v975h-350zM492 88h258q127 0 187 72.5t60 179.5q0 106 -60 177t-189 71h-256v-500z" />
<glyph unicode="&#x44b;" horiz-adv-x="1290" d="M162 0v1065h100v-389h258q156 0 253 -88t97 -248q0 -78 -25.5 -140.5t-72.5 -107.5t-111.5 -68.5t-140.5 -23.5h-358zM262 88h258q127 0 187.5 72.5t60.5 179.5q0 106 -59.5 177t-188.5 71h-258v-500zM1028 0v1065h100v-1065h-100z" />
<glyph unicode="&#x44c;" horiz-adv-x="933" d="M162 0v1065h100v-389h258q156 0 253 -88t97 -248q0 -78 -25.5 -140.5t-72.5 -107.5t-111.5 -68.5t-140.5 -23.5h-358zM262 88h258q127 0 187.5 72.5t60.5 179.5q0 106 -59.5 177t-188.5 71h-258v-500z" />
<glyph unicode="&#x44d;" horiz-adv-x="1105" d="M66 236l79 36q27 -53 67 -92t88 -64.5t100.5 -37.5t101.5 -12q84 0 157.5 33.5t131 93t92.5 138.5t39 171h-562v84h560q-8 80 -40 154.5t-85.5 132t-127 92t-165.5 34.5q-94 0 -188.5 -44t-153.5 -150l-74 39q53 104 155.5 171.5t256.5 67.5q123 0 220 -47t164.5 -123.5 t103.5 -175t36 -200.5q0 -104 -37 -204t-104.5 -178.5t-163.5 -125.5t-215 -47q-70 0 -136.5 16t-125 49t-103.5 80t-71 109z" />
<glyph unicode="&#x44e;" horiz-adv-x="1521" d="M162 0v1065h100v-485h203q6 115 45 208t102.5 159.5t147.5 102t182 35.5q111 0 201 -42t154.5 -116.5t100.5 -176t36 -220.5q0 -127 -38 -228t-103.5 -173t-157 -110.5t-195.5 -38.5q-102 0 -187 36.5t-147.5 104t-99.5 161t-43 207.5h-201v-489h-100zM563 530 q0 -106 27.5 -191t78 -144.5t120 -91t153.5 -31.5q88 0 161 33.5t123 94t77.5 144.5t27.5 186q0 106 -28.5 191.5t-81 146t-124 92t-155.5 31.5q-86 0 -156.5 -33.5t-120 -94t-76 -146t-26.5 -187.5z" />
<glyph unicode="&#x44f;" horiz-adv-x="1007" d="M68 0l311 432q-104 23 -172 101.5t-68 211.5q0 68 24.5 126.5t71 101.5t109 67.5t139.5 24.5h363v-1065h-101v420h-260l-299 -420h-118zM242 745q0 -100 58 -167.5t163 -67.5h282v465h-258q-53 0 -97 -16.5t-77.5 -47t-52 -72.5t-18.5 -94z" />
<glyph unicode="&#x450;" horiz-adv-x="1193" d="M86 537q0 113 40 212t109.5 173.5t165 117.5t205.5 43q113 0 209 -44t166 -118.5t108.5 -174t38.5 -209.5v-25.5t-2 -19.5h-933q6 -92 42.5 -171t93 -136.5t130 -90.5t157.5 -33q55 0 108.5 15.5t99.5 42t82 64.5t57 83l90 -24q-23 -57 -67 -105.5t-102.5 -83.5t-128 -54 t-143.5 -19q-113 0 -209 44t-166.5 120.5t-110.5 177t-40 215.5zM190 573h840q-6 94 -42 172t-92 134.5t-130 88t-158 31.5t-157.5 -31.5t-130 -88t-90 -135t-40.5 -171.5zM432 1495h117l127 -174l-70 -33z" />
<glyph unicode="&#x451;" horiz-adv-x="1193" d="M86 537q0 113 40 212t109.5 173.5t165 117.5t205.5 43q113 0 209 -44t166 -118.5t108.5 -174t38.5 -209.5v-25.5t-2 -19.5h-933q6 -92 42.5 -171t93 -136.5t130 -90.5t157.5 -33q55 0 108.5 15.5t99.5 42t82 64.5t57 83l90 -24q-23 -57 -67 -105.5t-102.5 -83.5t-128 -54 t-143.5 -19q-113 0 -209 44t-166.5 120.5t-110.5 177t-40 215.5zM190 573h840q-6 94 -42 172t-92 134.5t-130 88t-158 31.5t-157.5 -31.5t-130 -88t-90 -135t-40.5 -171.5zM420 1311v180h90v-180h-90zM698 1311v180h90v-180h-90z" />
<glyph unicode="&#x452;" horiz-adv-x="1183" d="M12 1221v82h150v192h102v-192h486v-82h-486v-521q53 147 165 232.5t255 85.5q182 0 265 -119t83 -350v-606q0 -66 -25.5 -122.5t-66.5 -97t-96.5 -63t-112.5 -22.5q-66 0 -122 17t-97 58l55 68q31 -29 72 -39t82 -10q39 0 77 16t67.5 44t47 66t17.5 81v591 q0 197 -64.5 295.5t-208.5 98.5q-72 0 -135 -30t-114.5 -81t-88 -120.5t-55.5 -151.5v-541h-102v1221h-150z" />
<glyph unicode="&#x453;" horiz-adv-x="833" d="M162 0v1065h624v-80h-524v-985h-100zM387 1321l125 174h119l-172 -207z" />
<glyph unicode="&#x454;" horiz-adv-x="1107" d="M86 537q0 102 35 200.5t102.5 175t164.5 123.5t222 47q154 0 255.5 -67.5t154.5 -171.5l-74 -39q-59 106 -153.5 150t-186.5 44t-166.5 -34.5t-128 -92t-85 -132t-40.5 -154.5h559v-84h-561q6 -92 40 -172t91.5 -138.5t131 -92t159.5 -33.5q49 0 100.5 12t99.5 37.5 t88 64.5t67 92l81 -36q-27 -61 -72.5 -108.5t-104 -80.5t-125 -49t-134.5 -16q-119 0 -215 47t-163.5 125.5t-104.5 178t-37 204.5z" />
<glyph unicode="&#x455;" horiz-adv-x="985" d="M63 143l52 70q86 -78 178 -115t203 -37q139 0 224 58.5t85 163.5q0 49 -21.5 82.5t-64.5 57t-106.5 42t-147.5 39.5q-90 20 -156.5 40.5t-109.5 49.5t-64.5 70t-21.5 104q0 80 30.5 139.5t85 98t125 58t150.5 19.5q125 0 221 -42t149 -107l-57 -55q-53 61 -138 91.5 t-181 30.5q-59 0 -111.5 -12t-91.5 -38.5t-61.5 -68.5t-22.5 -100q0 -47 15.5 -75.5t49 -49t87 -36t126.5 -33.5q100 -25 178 -47.5t130.5 -55t80 -78t27.5 -114.5q0 -143 -111.5 -228t-297.5 -85q-123 0 -236 40.5t-197 122.5z" />
<glyph unicode="&#x456;" horiz-adv-x="425" d="M162 0v1065h102v-1065h-102zM162 1307v188h102v-188h-102z" />
<glyph unicode="&#x457;" horiz-adv-x="425" d="M29 1311v180h90v-180h-90zM162 0v1065h102v-1065h-102zM307 1311v180h90v-180h-90z" />
<glyph unicode="&#x458;" horiz-adv-x="440" d="M-244 -287l56 68q35 -29 75.5 -39t81.5 -10q39 0 76 15t65.5 43t47 66t18.5 83v1126h103v-1122q0 -68 -26 -123.5t-69 -96t-96 -63t-108 -22.5q-66 0 -122.5 17t-101.5 58zM176 1307v188h103v-188h-103z" />
<glyph unicode="&#x459;" horiz-adv-x="1617" d="M16 88q51 2 93.5 32t76 107.5t60 211.5t49.5 345l29 281h591v-440h306q145 0 234 -82t89 -230q0 -143 -89 -228t-234 -85h-408v981h-393l-29 -242q-27 -217 -58.5 -359t-74.5 -226t-98.5 -120t-128.5 -38zM915 88h306q115 0 168 65.5t53 159.5q0 96 -51.5 159t-169.5 63 h-306v-447z" />
<glyph unicode="&#x45a;" horiz-adv-x="1640" d="M162 0v1065h100v-440h563v440h101v-440h317q145 0 234.5 -82t89.5 -230q0 -143 -90.5 -228t-233.5 -85h-418v535h-563v-535h-100zM926 88h317q115 0 168 65.5t53 159.5q0 96 -51 159t-170 63h-317v-447z" />
<glyph unicode="&#x45b;" horiz-adv-x="1181" d="M10 1221v82h152v192h102v-192h486v-82h-486v-516q51 143 163 228t257 85q182 0 265 -118t83 -351v-549h-102v530q0 197 -64.5 295.5t-210.5 98.5q-72 0 -134 -29t-112.5 -79t-88 -120.5t-56.5 -152.5v-543h-102v1221h-152z" />
<glyph unicode="&#x45c;" horiz-adv-x="960" d="M162 0v1065h100v-477h170l352 477h119l-391 -512l430 -553h-117l-385 506h-178v-506h-100zM406 1321l124 174h119l-172 -207z" />
<glyph unicode="&#x45d;" horiz-adv-x="1173" d="M162 0v1065h100v-922l686 922h86v-1065h-102v905l-674 -905h-96zM406 1495h116l127 -174l-69 -33z" />
<glyph unicode="&#x45e;" horiz-adv-x="1105" d="M35 1065h106l424 -965l396 965h100l-586 -1401q-29 -72 -73 -94.5t-121 -24.5q-12 0 -24.5 1t-25.5 3v93q12 -2 22.5 -3t20.5 -1q35 0 53.5 6t34.5 28q20 27 54.5 100.5t93.5 227.5zM303 1440h68q2 -55 48 -84t146 -29q98 0 141.5 26.5t51.5 86.5h67q-4 -78 -68.5 -124 t-191.5 -46q-129 0 -193.5 46t-68.5 124z" />
<glyph unicode="&#x45f;" horiz-adv-x="1103" d="M162 0v1067h100v-977h578v977h100v-1067h-340v-326h-100v326h-338z" />
<glyph unicode="&#x490;" horiz-adv-x="1073" d="M193 0v1454h745l12 361h80v-455h-733v-1360h-104z" />
<glyph unicode="&#x491;" horiz-adv-x="868" d="M162 0v1065h579l13 326h69v-410h-561v-981h-100z" />
<glyph unicode="&#x4b0;" horiz-adv-x="1282" d="M18 1454h117l506 -805l510 805h113l-572 -901v-57h291v-76h-291v-420h-104v420h-289v76h289v57z" />
<glyph unicode="&#x4b1;" horiz-adv-x="1132" d="M25 1065h116l424 -885l430 885h113l-492 -979v-8h256v-78h-256v-436h-104v436h-254v78h254v8z" />
<glyph unicode="&#x2000;" horiz-adv-x="940" />
<glyph unicode="&#x2001;" horiz-adv-x="1880" />
<glyph unicode="&#x2002;" horiz-adv-x="1173" />
<glyph unicode="&#x2003;" horiz-adv-x="1867" />
<glyph unicode="&#x2004;" horiz-adv-x="626" />
<glyph unicode="&#x2005;" horiz-adv-x="470" />
<glyph unicode="&#x2006;" horiz-adv-x="313" />
<glyph unicode="&#x2007;" horiz-adv-x="313" />
<glyph unicode="&#x2008;" horiz-adv-x="235" />
<glyph unicode="&#x2009;" horiz-adv-x="376" />
<glyph unicode="&#x200a;" horiz-adv-x="104" />
<glyph unicode="&#x2010;" horiz-adv-x="864" d="M137 510v94h590v-94h-590z" />
<glyph unicode="&#x2011;" horiz-adv-x="864" d="M137 510v94h590v-94h-590z" />
<glyph unicode="&#x2012;" horiz-adv-x="864" d="M137 510v94h590v-94h-590z" />
<glyph unicode="&#x2013;" horiz-adv-x="1144" d="M137 510v94h871v-94h-871z" />
<glyph unicode="&#x2014;" horiz-adv-x="1826" d="M137 510v94h1553v-94h-1553z" />
<glyph unicode="&#x2018;" horiz-adv-x="378" d="M135 1106v186l43 203h55l-30 -203h39v-186h-107z" />
<glyph unicode="&#x2019;" horiz-adv-x="368" d="M137 1309v186h107v-186l-43 -203h-56l31 203h-39z" />
<glyph unicode="&#x201a;" horiz-adv-x="487" d="M193 0v188h104v-188l-43 -190h-55l30 190h-36z" />
<glyph unicode="&#x201c;" horiz-adv-x="595" d="M135 1106v186l43 203h55l-30 -203h39v-186h-107zM352 1106v186l43 203h56l-31 -203h39v-186h-107z" />
<glyph unicode="&#x201d;" horiz-adv-x="585" d="M137 1309v186h107v-186l-43 -203h-56l31 203h-39zM352 1309v186h107v-186l-43 -203h-56l31 203h-39z" />
<glyph unicode="&#x201e;" horiz-adv-x="692" d="M193 0v188h104v-188l-43 -190h-55l30 190h-36zM397 0v188h105v-188l-43 -190h-56l31 190h-37z" />
<glyph unicode="&#x2020;" horiz-adv-x="804" d="M84 508v94h270v985h99v-985h268v-94h-268v-774h-99v774h-270z" />
<glyph unicode="&#x2021;" horiz-adv-x="815" d="M90 358v95h270v227h-270v94h270v813h99v-813h268v-94h-268v-227h268v-95h-268v-624h-99v624h-270z" />
<glyph unicode="&#x2022;" horiz-adv-x="710" d="M180 707q0 35 14.5 66.5t38 55t55 38t68.5 14.5t69 -14.5t55.5 -38t36.5 -55t13 -66.5q0 -74 -51 -125.5t-123 -51.5q-37 0 -68.5 13.5t-55 38t-38 56.5t-14.5 69z" />
<glyph unicode="&#x2026;" horiz-adv-x="851" d="M137 0v174h90v-174h-90zM383 0v174h88v-174h-88zM627 0v174h90v-174h-90z" />
<glyph unicode="&#x202f;" horiz-adv-x="376" />
<glyph unicode="&#x2030;" horiz-adv-x="2127" d="M100 1184q0 61 23.5 113.5t63.5 92.5t94.5 62.5t115.5 22.5t115.5 -22.5t94.5 -62.5t63.5 -92.5t23.5 -113.5q0 -59 -23.5 -112.5t-63.5 -92.5t-94.5 -61.5t-115.5 -22.5t-115.5 22.5t-94.5 61.5t-63.5 92t-23.5 113zM133 43l572 705l561 712l57 -47l-571 -706l-564 -713 zM182 1184q0 -47 17.5 -87t46 -71t68.5 -48t83 -17q45 0 85 18t69 49t46 72t17 84q0 47 -17 88t-48 71.5t-70 48t-82 17.5q-45 0 -84 -18.5t-68.5 -49t-46 -71.5t-16.5 -86zM760 270q0 59 23.5 112.5t63.5 92.5t94 61.5t116 22.5q61 0 115.5 -22.5t94.5 -61.5t63.5 -92 t23.5 -113q0 -61 -23.5 -113.5t-63.5 -92t-94.5 -62t-115.5 -22.5t-115.5 22.5t-94.5 62t-63.5 92t-23.5 113.5zM842 270q0 -47 16 -88t46 -71.5t69 -48t84 -17.5t85 18.5t68.5 49t46 71.5t17.5 86t-17.5 86t-48 72t-69.5 48.5t-82 17.5q-45 0 -84 -18.5t-69 -49.5t-46 -72 t-16 -84zM1464 270q0 59 23.5 112.5t63.5 92.5t94.5 61.5t115.5 22.5t115.5 -22.5t94.5 -61.5t63.5 -92t23.5 -113q0 -61 -23.5 -113.5t-63.5 -92t-94.5 -62t-115.5 -22.5t-115.5 22.5t-94.5 62t-63.5 92t-23.5 113.5zM1546 270q0 -47 16.5 -88t46 -71.5t68.5 -48t84 -17.5 t85 18.5t69 49t46 71.5t17 86t-17 86t-48 72t-70 48.5t-82 17.5q-45 0 -84 -18.5t-68.5 -49.5t-46 -72t-16.5 -84z" />
<glyph unicode="&#x2039;" horiz-adv-x="718" d="M84 498v61l500 359v-93l-414 -295l414 -292v-93z" />
<glyph unicode="&#x203a;" horiz-adv-x="718" d="M133 145v93l416 292l-416 295v93l502 -359v-61z" />
<glyph unicode="&#x2044;" horiz-adv-x="288" d="M-451 43l572 705l561 712l57 -47l-571 -706l-563 -713z" />
<glyph unicode="&#x205f;" horiz-adv-x="470" />
<glyph unicode="&#x20a1;" horiz-adv-x="1118" d="M84 537q0 94 27.5 180t79 155.5t123 119.5t157.5 73v256h64v-244q37 6 75 6q14 0 28.5 -1t29.5 -3v242h63v-252q102 -23 180 -83t121 -150l-100 -33q-47 88 -135 138t-193 50q-86 0 -161.5 -34.5t-132 -96t-89.5 -144.5t-33 -179t34 -181.5t90.5 -148t132 -99 t161.5 -36.5q55 0 110.5 16t101.5 43t80 62.5t46 74.5l100 -28q-35 -90 -118.5 -156t-194.5 -90v-240h-63v230q-14 -2 -27.5 -3t-28.5 -1q-41 0 -77 6v-232h-64v246q-86 25 -156.5 76t-122 121.5t-80 156.5t-28.5 183z" />
<glyph unicode="&#x20a3;" horiz-adv-x="1255" d="M57 287v86h191v1081h946v-94h-842v-578h715v-90h-715v-319h301v-86h-301v-287h-104v287h-191z" />
<glyph unicode="&#x20a4;" horiz-adv-x="978" d="M96 715v69h191q-23 41 -46.5 81t-43 80t-31.5 83t-12 90q0 72 28.5 134.5t76.5 109.5t112.5 74.5t138.5 27.5q109 0 203 -58t153 -157l-63 -63q-49 88 -129 139t-168 51q-53 0 -99.5 -20.5t-80 -56t-54 -83t-20.5 -102.5q0 -43 12 -84t32.5 -81t45.5 -81t47 -84h373v-69 h-340q27 -66 35 -129h327v-70h-321q0 -53 -11.5 -102t-38 -100.5t-69.5 -106.5t-104 -123q76 16 147 16q45 0 82 -6t71.5 -13t69.5 -13.5t72 -6.5q43 0 87 9.5t103 29.5l27 -82q-109 -49 -221 -49q-45 0 -85 7.5t-79 15.5t-79 15t-87 7t-105.5 -8t-105.5 -20l-31 75 q76 76 126.5 137.5t81 114t43 101.5t12.5 102h-224v70h217q-12 63 -40 129h-226z" />
<glyph unicode="&#x20a6;" horiz-adv-x="1705" d="M78 567v70h174v133h-174v70h174v614h80l489 -614h531v614h104v-614h172v-70h-172v-133h172v-70h-172v-567h-96l-453 567h-551v-567h-104v567h-174zM356 637h496l-107 133h-389v-133zM356 840h334l-334 417v-417zM877 770l106 -133h369v133h-475zM1038 567l314 -393v393 h-314z" />
<glyph unicode="&#x20a9;" horiz-adv-x="2254" d="M88 676v69h303l-59 142h-244v69h213l-211 498h113l209 -498h598l-203 488h102l217 -529l217 529h103l-205 -488h602l209 498h115l-213 -498h213v-69h-244l-59 -142h303v-69h-334l-289 -676h-96l-320 748l-321 -748h-96l-289 676h-334zM440 887l60 -142h526l37 86l-25 56 h-598zM530 676l232 -553l233 553h-465zM1190 831l37 -86h528l60 142h-603zM1255 676l240 -553l231 553h-471z" />
<glyph unicode="&#x20ac;" horiz-adv-x="1652" d="M68 567l30 70h197q-6 49 -6 100v33h-154l31 70h129q16 119 69.5 231.5t140.5 199.5t205.5 139t266.5 52q195 0 332 -89t204 -228l-86 -49q-39 76 -91 127t-112.5 82.5t-126 46t-128.5 14.5q-123 0 -220.5 -44t-170 -118t-117.5 -169t-60 -195h736l-31 -70h-713v-39 q0 -49 6 -94h662l-33 -70h-616q25 -102 77 -190t125.5 -152.5t165.5 -102.5t195 -38q66 0 135.5 16.5t133 51t118.5 89t92 128.5l90 -43q-37 -82 -100.5 -145.5t-141 -106.5t-164.5 -64.5t-171 -21.5q-127 0 -235.5 47t-194.5 127t-144.5 185.5t-85.5 219.5h-239z" />
<glyph unicode="&#x20b9;" horiz-adv-x="921" d="M90 1171v70h402q-45 53 -105.5 86t-130.5 33h-166v94h752v-70h-361q41 -29 74 -65.5t59 -77.5h228v-70h-195q35 -86 35 -167q0 -80 -24.5 -155t-69.5 -134.5t-107.5 -98t-138.5 -51.5l360 -565h-118l-414 645h98q72 0 129.5 31t97.5 81t61.5 114.5t21.5 132.5 q0 45 -11.5 87t-29.5 80h-447z" />
<glyph unicode="&#x2122;" horiz-adv-x="1427" d="M125 1380v78h465v-78h-195v-506h-76v506h-194zM684 874v580h102l189 -399l190 399h103v-580h-76v463l-184 -376h-64l-182 376v-463h-78z" />
<glyph unicode="&#x2202;" horiz-adv-x="1165" d="M61 399q0 98 40 186.5t110 156t162 107.5t194 40q137 0 240.5 -75t136.5 -212q8 49 12.5 122t4.5 128q0 145 -26 244.5t-73 161t-113.5 88t-148.5 26.5q-104 0 -194.5 -36t-137.5 -93l-59 62q68 80 174 119.5t225 39.5q223 0 337 -151.5t114 -495.5q0 -207 -40 -363.5 t-112.5 -262t-173 -158.5t-223.5 -53q-98 0 -180 32.5t-142.5 89t-93.5 133t-33 164.5zM160 406q0 -70 25.5 -130.5t72.5 -105.5t110.5 -71.5t141.5 -26.5q92 0 167 36.5t127 95t79.5 130.5t27.5 139q0 68 -26.5 127t-73.5 103.5t-109.5 71t-136.5 26.5q-80 0 -153.5 -32 t-129 -86t-89 -126t-33.5 -151z" />
<glyph unicode="&#x2206;" horiz-adv-x="1251" d="M10 0v84l574 1370h86l571 -1370v-84h-1231zM127 94h999l-499 1233z" />
<glyph unicode="&#x220f;" horiz-adv-x="1353" d="M59 1360v94h1229v-94h-164v-1544h-100v1544h-690v-1544h-98v1544h-177z" />
<glyph unicode="&#x2211;" horiz-adv-x="1050" d="M66 0v84l469 661l-459 633v76h872v-88h-737v-8l436 -602l-454 -647v-9h786v-100h-913z" />
<glyph unicode="&#x221a;" horiz-adv-x="884" d="M25 668v80h254l161 -648l254 1518h99l-293 -1618h-119l-188 668h-168z" />
<glyph unicode="&#x221e;" horiz-adv-x="1423" d="M96 721q0 70 24.5 131t66.5 107.5t100.5 73t126.5 26.5q59 0 104 -18.5t81 -51.5t62.5 -75t49.5 -89q25 47 51 89t61 75t80 51.5t107 18.5q72 0 130 -26.5t99 -73t62.5 -109t21.5 -131.5q0 -70 -23.5 -131.5t-66.5 -107.5t-100.5 -72.5t-124.5 -26.5q-57 0 -101.5 18.5 t-79 50t-62.5 72.5t-50 86q-23 -45 -48.5 -86t-61.5 -72.5t-83 -50t-108 -18.5q-63 0 -120.5 26.5t-102 72.5t-70 108.5t-25.5 132.5zM184 721q0 -63 20.5 -111.5t53.5 -80t74 -47t82 -15.5q49 0 88 20.5t70.5 54t56 79t47.5 96.5q-23 51 -47.5 98t-55 81t-69.5 54.5 t-90 20.5q-41 0 -82 -15.5t-74 -46t-53.5 -78t-20.5 -110.5zM752 709q20 -49 44.5 -93.5t55.5 -77t70 -52t88 -19.5q41 0 82 15.5t72.5 47t52 79.5t20.5 112q0 63 -20.5 110.5t-52 78t-72.5 46t-82 15.5q-53 0 -92 -21.5t-69 -57.5t-53.5 -83t-43.5 -100z" />
<glyph unicode="&#x222b;" horiz-adv-x="583" d="M18 -299l27 74q29 -12 64.5 -22.5t62.5 -10.5q55 0 88 42t29 126l-88 1544q-6 98 43 161.5t139 63.5q41 0 92 -12t92 -31l-28 -73q-29 12 -67 22t-60 10q-55 0 -88 -43t-29 -120l86 -1549q6 -109 -43 -167t-139 -58q-41 0 -90.5 12.5t-90.5 30.5z" />
<glyph unicode="&#x2248;" horiz-adv-x="878" d="M135 487q23 27 58.5 46.5t87.5 19.5q45 0 83.5 -13.5t73.5 -29.5t72 -29.5t80 -13.5q72 0 104 33l49 -60q-27 -23 -63.5 -39t-87.5 -16t-92 13.5t-78 29.5t-71 29.5t-68 13.5q-35 0 -57.5 -12.5t-39.5 -28.5zM135 686q23 27 58.5 45.5t87.5 18.5q45 0 83.5 -13.5 t73.5 -29t72 -28.5t80 -13q72 0 104 30l49 -53q-27 -25 -63.5 -42t-87.5 -17t-92 13t-78 29.5t-71 30t-68 13.5q-35 0 -57.5 -12.5t-39.5 -28.5z" />
<glyph unicode="&#x2260;" horiz-adv-x="931" d="M160 426v78h227l72 123h-299v78h346l133 227l63 -21l-120 -206h188v-78h-235l-72 -123h307v-78h-354l-133 -227l-64 18l123 209h-182z" />
<glyph unicode="&#x2264;" horiz-adv-x="921" d="M137 709v61l631 317v-100l-481 -246l481 -245v-105zM139 143v88h643v-88h-643z" />
<glyph unicode="&#x2265;" horiz-adv-x="921" d="M139 143v88h643v-88h-643zM154 391v105l481 245l-481 246v100l630 -317v-61z" />
<glyph unicode="&#x25ca;" horiz-adv-x="1005" d="M66 750l380 745h113l381 -745l-381 -750h-113zM176 768l338 -680l322 637l-340 686z" />
<glyph unicode="&#x25fc;" horiz-adv-x="1116" d="M0 0v1116h1116v-1116h-1116z" />
<glyph unicode="&#xfb06;" horiz-adv-x="1628" d="M80 139l51 70q172 -147 377 -148q53 0 108.5 11.5t100.5 38t73.5 67.5t28.5 103q0 70 -34.5 109.5t-86 60t-110 27.5t-105.5 11q-74 6 -143.5 20.5t-122.5 45.5t-85 83t-32 134q0 86 35 145.5t90.5 96.5t125 53t138.5 16q72 0 137.5 -15t114.5 -48q-14 31 -26.5 57.5 t-22.5 54t-16 57.5t-6 68q0 55 16 105.5t53 88.5t98.5 60.5t151.5 22.5q104 0 161.5 -29.5t86.5 -88t35 -146.5t6 -205h248v-84h-248v-778q0 -59 41 -89t96 -30q57 0 104.5 21.5t57.5 27.5l31 -82q-8 -4 -28.5 -15t-50.5 -21.5t-66 -18.5t-72 -8q-92 0 -153.5 49t-61.5 141 v803h-150v84h150q0 127 -7.5 206t-29 124t-60.5 60t-104 15q-70 0 -116 -16t-74.5 -44t-41 -66.5t-12.5 -83.5q0 -61 17.5 -119t39 -102t39 -71.5t19.5 -31.5l-55 -57q-59 74 -139.5 98t-157.5 24q-55 0 -108.5 -10t-95.5 -35.5t-67.5 -66.5t-25.5 -103q0 -70 31.5 -109.5 t78.5 -62t100.5 -31t98.5 -12.5q68 -6 139.5 -19t132 -43t99 -82t38.5 -138q0 -84 -36.5 -143.5t-95 -96.5t-131 -53t-146.5 -16q-131 0 -241.5 47t-184.5 112z" />
<glyph horiz-adv-x="1155" d="M180 0v1116h508q76 0 141.5 -30.5t112.5 -80t73.5 -113t26.5 -126.5q0 -61 -20.5 -116.5t-57 -100.5t-89 -76t-113.5 -41l299 -432h-111l-288 416h-388v-416h-94zM274 502h418q57 0 104.5 22.5t80 59.5t51 84t18.5 98t-20.5 99t-56 84t-84 57.5t-103.5 21.5h-408v-526z " />
<glyph horiz-adv-x="1206" d="M104 403q0 72 27 133.5t71 109.5t99 82t113 52q-53 18 -99.5 49t-82 70t-56 88t-20.5 105q0 88 40 155.5t103 113.5t144 69.5t161 23.5t160 -23.5t143.5 -69.5t103.5 -112.5t40 -154.5q0 -57 -21.5 -105.5t-56.5 -88.5t-83 -70.5t-99 -49.5q63 -23 120.5 -58.5 t98.5 -84.5t65.5 -109.5t24.5 -130.5q0 -94 -41 -169.5t-109.5 -130t-161 -83t-192.5 -28.5q-109 0 -200 33.5t-155.5 90t-100.5 132t-36 161.5zM209 403q0 -78 36 -138t93 -102t128 -64.5t140 -22.5q70 0 140.5 23.5t126 66.5t90 103.5t34.5 136.5q0 78 -35.5 139t-93 103 t-128 64.5t-140.5 22.5q-72 0 -141.5 -23.5t-124.5 -66.5t-90 -104.5t-35 -137.5zM260 1087q0 -66 32 -114.5t81 -83.5t109.5 -52.5t119.5 -17.5t120.5 18.5t111 53.5t81 85t31.5 116q0 63 -29.5 113t-77.5 84t-110.5 52.5t-128.5 18.5t-127 -18.5t-108.5 -54.5t-76 -86.5 t-28.5 -113.5z" />
<glyph horiz-adv-x="1073" d="M82 154l51 77q76 -72 184.5 -114.5t245.5 -42.5q150 0 239 50t89 155q0 53 -23.5 90t-69.5 64.5t-117 47t-165 37.5q-96 18 -169 41t-122 55.5t-74.5 79.5t-25.5 117q0 76 31.5 134.5t88 97t135.5 59t173 20.5q229 0 375 -129l-45 -75q-121 121 -330 120q-174 0 -252 -58 t-78 -161q0 -51 20.5 -85t63.5 -58.5t108.5 -42t155.5 -35.5q96 -18 174 -40.5t132.5 -57.5t84 -85t29.5 -126t-30.5 -132.5t-88 -93t-136.5 -55t-175 -18.5q-279 0 -479 164z" />
<glyph horiz-adv-x="454" d="M180 0v1114h94v-1114h-94z" />
<glyph horiz-adv-x="1673" d="M51 1065h109l323 -934l303 934h101l303 -934l326 934h106l-377 -1065h-106l-301 913l-306 -913h-104z" />
<glyph horiz-adv-x="1105" d="M33 1065h108l422 -965l398 965h100l-619 -1501h-110q0 2 10 27.5t26.5 65.5t36 89t40 97t38 90t27.5 67z" />
<glyph horiz-adv-x="1087" d="M180 0v1116h795v-88h-701v-418h613v-82h-613v-442h717v-86h-811z" />
<glyph horiz-adv-x="1388" d="M102 717q0 131 41 263t118 237.5t186.5 171t246.5 65.5q147 0 258 -70.5t184.5 -179t111.5 -238.5t38 -249q0 -133 -41 -264t-117.5 -235.5t-186.5 -170t-247 -67.5q-147 4 -257.5 73.5t-184.5 176t-112 235.5t-38 252zM207 717q4 -113 36.5 -226.5t93 -205.5t151 -150.5 t206.5 -58.5q123 0 214 61.5t151.5 156.5t91.5 207.5t31 215.5q0 113 -33 226.5t-96.5 205.5t-153.5 150.5t-205 58.5q-123 0 -214 -62.5t-152.5 -157t-91 -208t-29.5 -213.5z" />
<glyph horiz-adv-x="1075" d="M49 1028v88h977v-88h-440v-1028h-94v1028h-443z" />
<glyph horiz-adv-x="1134" d="M86 266l76 43q55 -106 159.5 -170.5t229.5 -64.5q82 0 153.5 27.5t124 78.5t83 122t30.5 155q0 82 -29.5 149.5t-81 116.5t-120 76.5t-148.5 27.5q-104 0 -195.5 -46t-150.5 -132h-100q2 14 11 57.5t20.5 102.5t25.5 130t29 142q35 168 76 373h696v-96h-619l-112 -576 q59 66 145 102t184 36t184.5 -34t151 -95.5t101.5 -146.5t37 -185q0 -109 -40 -197t-108 -150.5t-158 -97t-190 -34.5q-156 0 -278.5 78.5t-186.5 207.5z" />
<glyph horiz-adv-x="1331" d="M162 555v561h94v-561q0 -90 19.5 -176t66.5 -152.5t126 -106.5t196 -40q121 0 199.5 41t125.5 108.5t66.5 152.5t19.5 173v561h94v-561q0 -113 -26.5 -215t-86 -179t-155.5 -123t-235 -46q-143 0 -239.5 48t-155 127t-84 180.5t-25.5 207.5z" />
<glyph horiz-adv-x="1150" d="M51 406v90l774 958h72v-954h180v-94h-180v-406h-102v406h-744zM168 500h635v790z" />
<glyph horiz-adv-x="1177" d="M180 0v1116h570q63 0 114 -24.5t86 -65.5t54.5 -92t19.5 -103q0 -86 -46 -155.5t-126 -102.5q104 -29 163.5 -106.5t59.5 -177.5q0 -61 -25.5 -114.5t-70.5 -92.5t-104.5 -60.5t-126.5 -21.5h-568zM274 84h474q49 0 91 18.5t72.5 49t49 69.5t18.5 82t-16.5 83t-46 69.5 t-69.5 48t-87 18.5h-486v-438zM274 604h439q47 0 87 17.5t68.5 47t45 68.5t16.5 80q0 88 -57.5 150.5t-149.5 62.5h-449v-426z" />
<glyph horiz-adv-x="1198" d="M45 1116h100l455 -985l453 985h102l-512 -1116h-86z" />
<glyph horiz-adv-x="2148" d="M49 1454h115l414 -1304l430 1304h114l449 -1304l411 1304h117l-465 -1454h-110l-457 1284l-442 -1284h-111z" />
<glyph horiz-adv-x="862" d="M47 51l31 78q41 -25 100.5 -42t132.5 -17q98 0 155.5 31.5t87.5 93t39 150.5t9 204v565h94v-565q0 -127 -12 -231.5t-52 -178t-116 -114.5t-205 -41q-158 0 -264 67z" />
<glyph horiz-adv-x="1826" d="M45 1116h105l462 -999l242 516l-211 475h90l178 -401l181 401h92l-215 -475l248 -516l460 999h105l-518 -1116h-86l-265 561l-264 -561h-88z" />
<glyph horiz-adv-x="423" d="M160 -436v1495h102v-1495h-102zM160 1307v166h102v-166h-102z" />
<glyph horiz-adv-x="1134" d="M180 0v1114h94v-661l697 663h110l-501 -489l526 -627h-107l-479 567l-246 -223v-344h-94z" />
<glyph horiz-adv-x="1118" d="M33 1116h108l418 -495l418 495h108l-473 -565l459 -551h-106l-406 479l-403 -479h-109l459 551z" />
<glyph horiz-adv-x="1220" d="M96 567q0 100 38 199.5t111.5 178.5t180 128t244.5 49q162 0 276.5 -68.5t171.5 -174.5l-80 -48q-31 57 -73.5 96.5t-92 63t-103.5 33.5t-105 10q-115 0 -202 -42t-147.5 -109.5t-91 -152.5t-30.5 -171q0 -96 36.5 -183t100 -152.5t150.5 -105.5t188 -40q53 0 110.5 12 t109.5 38t97 67t76 96l82 -41q-31 -63 -84 -111.5t-117.5 -81t-137.5 -50t-142 -17.5q-125 0 -228.5 50t-178.5 132t-117 185.5t-42 209.5z" />
<glyph horiz-adv-x="1142" d="M49 1116h105l417 -610l418 610h107l-478 -698v-418h-96v420z" />
<glyph horiz-adv-x="450" d="M174 0v1495h102v-1495h-102z" />
<glyph horiz-adv-x="1019" d="M180 0v1116h94v-1030h703v-86h-797z" />
<glyph horiz-adv-x="1122" d="M76 0v78l852 950h-840v88h954v-78l-845 -952h841v-86h-962z" />
<glyph horiz-adv-x="1228" d="M88 967q0 104 40 194t108.5 157.5t162 106.5t201.5 39q113 0 207 -41t163.5 -116.5t108.5 -186t39 -248.5q0 -227 -39 -395t-108.5 -278.5t-166.5 -164.5t-214 -54q-147 0 -261 75.5t-169 206.5l71 55q41 -111 139.5 -177t219.5 -66q96 0 175 46t135 135t87 217t31 294 q-23 -66 -66 -120t-99 -93t-123.5 -60.5t-141.5 -21.5q-104 0 -195.5 39t-159 106.5t-106.5 158t-39 192.5zM188 969q0 -84 33 -159t89.5 -130t130 -88t157.5 -33t158.5 33t131 88t89.5 129t33 158q0 82 -33 156.5t-89.5 130t-132 88t-159.5 32.5t-157.5 -32.5t-129 -88 t-88.5 -129t-33 -155.5z" />
<glyph horiz-adv-x="1259" d="M86 530q0 113 39 213.5t106.5 176t158.5 119.5t196 44q139 0 244.5 -70.5t166.5 -181.5v228h103v-1059h-103v225q-61 -111 -166.5 -178t-238.5 -67q-113 0 -206 46t-159.5 121.5t-103.5 175t-37 207.5zM190 528q0 -90 32 -173t87.5 -146.5t132 -100t168.5 -36.5 q70 0 130.5 22.5t109.5 60.5t86 90t61 111v344q-25 61 -63.5 114.5t-88.5 92.5t-110.5 61.5t-126.5 22.5q-94 0 -171 -41t-132 -106.5t-85 -148.5t-30 -167z" />
<glyph horiz-adv-x="1097" d="M74 309q0 86 41 145.5t105.5 97.5t142 55.5t153.5 17.5q119 0 205 -20.5t127 -37.5v105q0 147 -86 238t-234 91q-80 0 -167 -32.5t-175 -94.5l-41 70q88 59 186.5 99t205.5 40q100 0 178 -31.5t130 -87t78.5 -132t26.5 -168.5v-664h-100v172q-76 -100 -190.5 -146 t-235.5 -46q-74 0 -138.5 25.5t-111.5 69.5t-73.5 104.5t-26.5 129.5zM172 315q0 -57 22.5 -103t60.5 -80t87 -52.5t102 -18.5q51 0 104.5 10.5t102.5 30t91 50t71 73.5q35 45 35 82v189q-78 29 -160 43t-160 14q-59 0 -122.5 -12.5t-115.5 -40t-85 -73.5t-33 -112z" />
<glyph horiz-adv-x="1548" d="M180 0v1116h96l498 -780l498 780h96v-1116h-96v940l-469 -731h-58l-471 731v-940h-94z" />
<glyph horiz-adv-x="1366" d="M180 0v1116h74l838 -952v950h94v-1114h-86l-826 936v-936h-94z" />
<glyph horiz-adv-x="806" d="M84 1176v96q53 0 109.5 29.5t103.5 66.5t76.5 68.5t32.5 36.5h102v-1379h260v-94h-637v94h275v1258q-16 -25 -53.5 -54.5t-83.5 -57.5t-95 -46t-90 -18z" />
<glyph horiz-adv-x="1054" d="M180 0v1116h791v-88h-697v-422h592v-84h-592v-522h-94z" />
<glyph horiz-adv-x="1327" d="M96 559q0 111 43 212t120 180t180.5 125t226.5 46q127 0 231 -49t178 -129t115 -181t41 -206q0 -113 -43 -215t-119 -180t-180 -124t-225 -46q-127 0 -231.5 48t-179.5 127t-116 181.5t-41 210.5zM193 557q0 -92 34.5 -179t97 -152.5t149.5 -105.5t192 -40q106 0 193 42 t148.5 109.5t94.5 153.5t33 174q0 92 -35 178t-98.5 152.5t-149.5 105.5t-188 39q-106 0 -193.5 -41t-149 -108.5t-95 -153.5t-33.5 -174z" />
<glyph d="M86 530q0 111 40 211.5t108.5 176t161.5 120.5t200 45q125 0 233.5 -66.5t169.5 -166.5v215h95v-1501h-103v665q-168 -249 -418 -249q-111 0 -199.5 46t-153 122.5t-99.5 176t-35 205.5zM190 528q0 -92 31 -174t85 -145.5t129 -100t165 -36.5q68 0 126 22.5t107.5 59 t89.5 87t68 105.5v348q-8 59 -45 112.5t-91 94.5t-117.5 65.5t-125.5 24.5q-92 0 -169.5 -40t-134 -104.5t-87.5 -148.5t-31 -170z" />
<glyph horiz-adv-x="1501" d="M90 731q0 143 51.5 276.5t143.5 234.5t218 161.5t273 60.5q182 0 324.5 -88t228.5 -229l-80 -68q-35 57 -84 110.5t-109.5 92.5t-132 62.5t-153.5 23.5q-129 0 -235.5 -55.5t-181 -146.5t-115.5 -206.5t-41 -236.5t42 -235.5t117.5 -203.5t181 -143.5t234.5 -54.5 q113 0 209 43t170 115.5t120 166t62 193.5h-454v94h567q0 -8 -1 -31.5t-1 -35.5q-14 -127 -69.5 -243t-142.5 -205t-204 -141t-252 -52q-150 0 -275.5 62.5t-216.5 166t-142.5 237.5t-51.5 275z" />
<glyph horiz-adv-x="1761" d="M86 530q0 106 37 207t103.5 177.5t160.5 122.5t211 46q102 0 174 -24.5t129 -67.5q-33 53 -65.5 119t-32.5 143q0 119 75.5 200t219.5 81q119 0 182 -34t92 -96.5t34 -148.5t5 -190h248v-84h-248v-778q4 -59 43 -89t90 -30q33 0 60.5 7t50 15.5t37 16.5t18.5 10l31 -82 q-6 -4 -26.5 -14t-49.5 -21.5t-66.5 -19.5t-80.5 -8q-41 0 -79 12t-67 36.5t-46 59.5t-17 82v803h-150v84h150q0 119 -5.5 197.5t-27 125t-68.5 64.5t-131 18q-55 0 -95 -17t-65.5 -48t-39 -71t-13.5 -85q0 -53 21.5 -114.5t50.5 -120t56.5 -105.5t39.5 -73l-100 -33 q-53 98 -140 143t-196 45q-96 0 -172 -41t-128 -106.5t-80 -147.5t-28 -166q0 -92 33 -175t90.5 -146.5t134 -100t164.5 -36.5q45 0 98.5 13t101.5 39t85 62.5t49 81.5l100 -28q-23 -63 -68.5 -111.5t-105 -81.5t-127 -50t-133.5 -17q-117 0 -213 47t-165.5 124.5 t-107.5 176t-38 202.5z" />
<glyph horiz-adv-x="1265" d="M96 561q0 111 42 212t116 179t176 124t223 46q180 0 292 -67.5t169 -173.5l-78 -50q-59 106 -159.5 155.5t-227.5 49.5q-104 0 -189 -41t-144.5 -108.5t-91 -153.5t-31.5 -176q0 -96 36.5 -182t101 -151.5t151.5 -104.5t188 -39q106 0 203.5 45t189.5 143v201h-272v76 h356v-545h-84v166q-172 -174 -401 -174q-123 0 -226.5 49t-179.5 129t-118 182.5t-42 208.5z" />
<glyph horiz-adv-x="1044" d="M61 1358v96h983l-741 -1454h-115l693 1358h-820z" />
<glyph horiz-adv-x="1228" d="M111 571q0 229 38.5 397.5t108.5 279t167 163.5t214 53q147 0 261 -75.5t169 -206.5l-72 -56q-41 111 -139 178.5t-219 67.5q-96 0 -175 -46t-134.5 -135t-87 -218t-31.5 -295q23 66 65.5 120t99 93t124 60.5t141.5 21.5q104 0 194.5 -39t158 -106.5t106.5 -158 t39 -192.5q0 -104 -39 -194t-108.5 -158t-163 -106.5t-199.5 -38.5q-113 0 -208 40.5t-164 116.5t-107.5 185.5t-38.5 248.5zM221 477q0 -84 33 -157.5t88 -129t130 -87t159 -31.5t158.5 31.5t130 87t88 129t32.5 157.5t-32.5 158t-88 129t-130 88t-158.5 33t-159 -33 t-130 -88t-88 -129t-33 -158z" />
<glyph horiz-adv-x="1265" d="M180 0v1116h406q143 0 251.5 -44t181.5 -118.5t108.5 -176t35.5 -216.5q0 -127 -41 -230.5t-115.5 -177t-182 -113.5t-238.5 -40h-406zM274 86h312q119 0 209 36t150.5 100.5t91 150.5t30.5 188t-31.5 188.5t-93 147.5t-151 96t-205.5 35h-312v-942z" />
<glyph horiz-adv-x="612" d="M57 971v94h154v367h104v-367h254v-94h-254v-971h-104v971h-154z" />
<glyph horiz-adv-x="1196" d="M102 336l70 47q4 -59 37 -114.5t88 -97.5t130 -67.5t165 -25.5q84 0 155.5 22.5t124 63.5t82 96t29.5 123q0 72 -34 130t-96 98t-151.5 61.5t-197.5 21.5h-72v92h72q211 0 325.5 71t114.5 208q0 70 -28.5 127t-79 99t-118 64.5t-145.5 22.5q-137 0 -237 -60.5 t-141 -156.5l-76 66q27 57 73 102t106 77t130 49.5t145 17.5q102 0 190.5 -31t152 -85t99.5 -128t36 -160q0 -127 -74 -209t-215 -117q74 -14 134 -47.5t103 -83t67 -111t24 -128.5q0 -88 -40 -160t-108 -123t-158 -79.5t-192 -28.5q-100 0 -186.5 25.5t-151 72.5 t-104 112.5t-48.5 143.5z" />
<glyph d="M86 530q0 111 37 211.5t102.5 176t154.5 120.5t195 45q70 0 130.5 -20.5t112.5 -54t95 -78.5t78 -96v661h103v-1495h-103v207q-63 -102 -168.5 -164.5t-224.5 -62.5q-111 0 -205 46t-162.5 122.5t-106.5 176t-38 205.5zM190 528q0 -92 33 -174t91.5 -145.5t135 -100 t166.5 -36.5q55 0 120 22.5t120 62.5t93 91t42 110v351q-20 59 -62 110t-96.5 90t-116 60.5t-118.5 21.5q-92 0 -168 -40t-129 -104.5t-82 -148.5t-29 -170z" />
<glyph horiz-adv-x="1175" d="M100 0v39q0 131 29 229.5t81 172t127 127t165 94.5q72 33 150.5 63.5t144 72.5t108.5 103.5t43 157.5q0 61 -20.5 118.5t-62.5 101.5t-106.5 70.5t-152.5 26.5q-86 0 -153.5 -23.5t-119.5 -57t-88 -71.5t-59 -69l-69 64q6 10 41 51t97 86t152.5 81t208.5 36 q111 0 195 -35t139.5 -92.5t83 -132t27.5 -154.5q0 -109 -45 -184.5t-115 -129t-150.5 -89t-154.5 -62.5q-123 -47 -196.5 -106.5t-112.5 -126t-51.5 -135t-12.5 -132.5h840v-94h-963z" />
<glyph horiz-adv-x="1196" d="M43 0l514 1116h80l512 -1116h-102l-164 358h-570l-166 -358h-104zM338 442h516l-256 553z" />
<glyph horiz-adv-x="1105" d="M180 0v1116h500q78 0 142.5 -30.5t111.5 -80t73.5 -113t26.5 -126.5q0 -68 -24.5 -130.5t-69.5 -111.5t-108.5 -78.5t-139.5 -29.5h-418v-416h-94zM274 502h412q57 0 104.5 21.5t80 58t50 85t17.5 99.5q0 53 -20.5 100t-56.5 83t-83 57.5t-102 21.5h-402v-526z" />
<glyph horiz-adv-x="1304" d="M180 0v1116h94v-502h754v502h96v-1116h-96v526h-754v-526h-94z" />
<glyph horiz-adv-x="1325" d="M96 559q0 111 43 212t120 180t180.5 125t226.5 46q127 0 231 -49t178 -129t115 -181t41 -206q0 -117 -46 -221.5t-126 -181.5l137 -154h-98l-94 104q-70 -53 -156 -82.5t-184 -29.5q-127 0 -231.5 48t-179.5 127t-116 181.5t-41 210.5zM193 557q0 -92 34.5 -179 t97 -152.5t150 -105.5t191.5 -40q82 0 151.5 24.5t126.5 67.5l-145 164h98l100 -115q66 70 102 158t36 180t-35 179t-98.5 152.5t-149.5 105.5t-188 40q-106 0 -193.5 -42t-149 -109.5t-95 -153.5t-33.5 -174z" />
</font>
</defs>
</svg>
