<?xml version="1.0" standalone="no"?>
<!DOCTYPE svg PUBLIC "-//W3C//DTD SVG 1.1//EN" "http://www.w3.org/Graphics/SVG/1.1/DTD/svg11.dtd" >
<svg xmlns="http://www.w3.org/2000/svg" xmlns:xlink="http://www.w3.org/1999/xlink" version="1.1">
<metadata></metadata>
<defs>
<font id="ralewaysemibold_italic" horiz-adv-x="1259" >
<font-face units-per-em="2048" ascent="1638" descent="-410" />
<missing-glyph horiz-adv-x="495" />
<glyph unicode="&#xfb00;" horiz-adv-x="1228" d="M55 0l185 870h-134l37 174h136l4 17q18 76 55 145.5t90 120.5t121.5 82t148.5 31q68 0 125.5 -16.5t104.5 -41.5q59 59 130.5 96.5t164.5 37.5q80 0 130 -24t89 -42l-82 -168q-23 16 -53.5 28.5t-77.5 12.5t-83 -20.5t-63.5 -52t-46 -72.5t-28.5 -84l-13 -50h283 l-35 -174h-285l-184 -870h-225l184 870h-268l-184 -870h-226zM504 1044h266q8 37 24.5 86.5t34.5 83.5q-25 18 -61.5 25.5t-67.5 7.5q-84 0 -130 -53t-62 -129z" />
<glyph unicode="&#xfb01;" horiz-adv-x="1081" d="M55 0l185 870h-134l37 174h136l8 43q16 84 59 161t106.5 136.5t146.5 95.5t179 36q111 0 191 -36t137 -83l-127 -168q-37 41 -96.5 67.5t-130.5 26.5q-49 0 -89 -19.5t-70 -52t-50.5 -73.5t-28.5 -84l-10 -50h536l-223 -1044h-225l184 870h-311l-184 -870h-226z" />
<glyph unicode="&#xfb02;" horiz-adv-x="1245" d="M55 0l185 870h-134l37 174h136l12 62q43 193 171 301.5t320 108.5q178 0 260 -75t82 -200q0 -47 -12 -96l-176 -836q-4 -20 -4 -35q0 -35 17.5 -61.5t58.5 -26.5q18 0 38.5 4.5t39 9.5t31.5 9l13 4l-10 -182q-2 -2 -23.5 -9.5t-55 -15.5t-75.5 -14t-83 -6 q-98 0 -149.5 49t-51.5 123q0 16 2 33.5t8 44.5l187 862q4 23 7 43t3 39q0 59 -31 101t-110 42q-98 0 -157 -70.5t-81 -181.5l-6 -27h180l-35 -174h-184l-184 -870h-226z" />
<glyph unicode="&#xfb03;" horiz-adv-x="1574" d="M55 0l185 870h-134l37 174h136l4 17q16 72 53 140.5t91 121.5t122.5 85t148.5 32q68 0 125.5 -16.5t104.5 -41.5q66 59 150.5 96.5t189.5 37.5q102 0 185 -36t146 -83l-126 -168q-35 39 -96.5 66.5t-127.5 27.5q-51 0 -91 -19.5t-69.5 -52t-50 -73.5t-30.5 -84l-13 -50 h539l-223 -1044h-226l185 870h-312l-184 -870h-225l184 870h-268l-184 -870h-226zM504 1044h266q8 37 24.5 86.5t34.5 83.5q-25 18 -61.5 25.5t-67.5 7.5q-41 0 -73.5 -15t-57 -41t-40 -58.5t-21.5 -67.5z" />
<glyph unicode="&#xfb04;" horiz-adv-x="1740" d="M55 0l185 870h-134l37 174h136l4 17q18 76 56 144.5t93 120.5t124 83t149 31q70 0 123 -16.5t102 -41.5q66 66 153.5 100t196.5 34q176 0 258 -75t82 -200q0 -47 -12 -96l-176 -836q-4 -20 -5 -35q0 -35 17.5 -61.5t58.5 -26.5q16 0 38 4.5t40 9.5t31.5 9t15.5 4 l-12 -182q-2 -2 -23.5 -9.5t-55.5 -15.5t-76 -14t-81 -6q-102 0 -152 49t-50 123q0 18 3 37.5t9 48.5l184 858q4 20 7 39.5t3 38.5q0 59 -30.5 101t-112.5 42q-49 0 -88 -20.5t-67.5 -56.5t-48 -83t-31.5 -100l-5 -19h179l-35 -174h-182l-185 -870h-225l184 870h-272 l-184 -870h-226zM504 1044h272q8 41 21.5 91.5t29.5 81.5q-25 18 -56.5 24t-59.5 6q-41 0 -76 -15t-60.5 -41t-43 -57.5t-23.5 -64.5z" />
<glyph horiz-adv-x="0" />
<glyph unicode="&#xd;" horiz-adv-x="0" />
<glyph horiz-adv-x="0" />
<glyph horiz-adv-x="0" />
<glyph unicode=" "  horiz-adv-x="495" />
<glyph unicode="&#x09;" horiz-adv-x="495" />
<glyph unicode="&#xa0;" horiz-adv-x="495" />
<glyph unicode="!" horiz-adv-x="561" d="M37 0l59 281h226l-60 -281h-225zM147 518l201 950h225l-200 -950h-226z" />
<glyph unicode="&#x22;" horiz-adv-x="718" d="M211 1026l96 451h193l-97 -451h-192zM483 1026l97 451h192l-96 -451h-193z" />
<glyph unicode="#" horiz-adv-x="1388" d="M29 397l37 172h260l139 324h-242l35 160h281l178 401h182l-178 -401h270l176 401h183l-179 -401h236l-35 -160h-274l-140 -324h254l-34 -172h-297l-176 -397h-183l176 397h-268l-176 -397h-184l178 397h-219zM508 569h268l139 324h-268z" />
<glyph unicode="$" horiz-adv-x="1234" d="M-23 182l150 197q14 -25 49 -53.5t82 -55t107.5 -47t128.5 -28.5l90 423q-59 14 -127 38t-125.5 61t-94 92t-36.5 135q0 115 44 207t118.5 158.5t174 105.5t212.5 47l45 207h104l-45 -207q127 -8 224.5 -53t164.5 -109l-143 -188q-12 20 -41 44t-69 45.5t-90 36.5 t-105 19l-90 -421q66 -23 138 -45.5t133.5 -59.5t101.5 -96.5t40 -151.5q0 -127 -47 -218t-127 -152.5t-184.5 -92t-218.5 -34.5l-45 -215h-105l47 219q-137 10 -256 58t-205 134zM455 1022q0 -66 45 -101.5t135 -64.5l86 401q-137 -8 -201.5 -72.5t-64.5 -162.5zM569 193 q141 2 216 60.5t75 160.5q0 70 -55 109.5t-152 72.5z" />
<glyph unicode="%" horiz-adv-x="1499" d="M53 82l692 682l662 702l86 -92l-680 -674l-674 -712zM186 1118q0 72 33 136.5t86 113.5t122 78t142 29q57 0 104.5 -19.5t81 -53.5t52 -80t18.5 -99q0 -72 -32.5 -136.5t-86 -113.5t-123 -78t-143.5 -29q-115 0 -184.5 73t-69.5 179zM348 1133q0 -63 32 -106.5t85 -43.5 q37 0 72.5 18.5t63.5 50t45.5 72.5t17.5 84q0 63 -33 106.5t-86 43.5q-37 0 -72 -19.5t-62.5 -50.5t-45 -71.5t-17.5 -83.5zM723 231q0 72 32.5 136.5t86 113.5t122 78t142.5 29q117 0 185.5 -73t68.5 -179q0 -72 -32 -136.5t-86 -113.5t-122.5 -77.5t-142.5 -28.5 q-115 0 -184.5 72.5t-69.5 178.5zM883 246q0 -63 32.5 -106.5t85.5 -43.5q37 0 72 18.5t63.5 50.5t46 73t17.5 84q0 63 -33.5 106t-87.5 43q-37 0 -71.5 -18.5t-62 -50t-45 -72.5t-17.5 -84z" />
<glyph unicode="&#x26;" horiz-adv-x="1400" d="M33 326q0 84 29.5 152.5t78.5 126t113.5 105.5t136.5 93q-53 86 -78.5 151.5t-25.5 126.5q0 82 35.5 154t97 125t142.5 83t169 30q117 0 207 -60.5t131 -177.5l-156 -109q-27 80 -84 129.5t-127 49.5q-41 0 -77.5 -15.5t-65.5 -41t-45 -59.5t-16 -71q0 -41 26.5 -98 t98.5 -160l249 -362q41 78 71 166t46 188h367l-31 -168h-184q-61 -190 -164 -336l244 -348h-285l-115 168q-100 -92 -210.5 -140t-221.5 -48q-82 0 -148.5 26.5t-112.5 73.5t-70.5 109.5t-24.5 136.5zM252 350q0 -94 55 -144t135 -50q74 0 149 37.5t140 105.5l-244 360 q-111 -70 -173 -141.5t-62 -167.5z" />
<glyph unicode="'" horiz-adv-x="448" d="M211 1024l96 453h193l-97 -453h-192z" />
<glyph unicode="(" horiz-adv-x="595" d="M80 537q0 135 38 260t102.5 246.5t152.5 242.5t188 250l156 -74q-68 -84 -143.5 -192.5t-138 -228t-103.5 -245.5t-41 -243q0 -129 28.5 -279.5t79.5 -285.5l-184 -84q-31 70 -55.5 148.5t-42 160.5t-27.5 164t-10 160z" />
<glyph unicode=")" horiz-adv-x="593" d="M-72 -12q90 113 166 222t131.5 218t86 217.5t30.5 222.5q0 84 -10 172t-25.5 168t-34 146.5t-34.5 107.5l188 74q55 -156 93 -325.5t38 -325.5q0 -133 -38 -259t-103.5 -248t-152.5 -240t-185 -234z" />
<glyph unicode="*" horiz-adv-x="673" d="M250 1268l53 102l125 -59l25 155h122l-40 -155l153 59l8 -102l-145 -45l59 -138l-102 -61l-55 145l-119 -145l-76 61l117 138z" />
<glyph unicode="+" horiz-adv-x="862" d="M121 637v180h227v248h205v-248h225v-180h-225v-248h-205v248h-227z" />
<glyph unicode="," horiz-adv-x="446" d="M-23 -199l93 211h-72l51 250h201l-51 -250l-117 -211h-105z" />
<glyph unicode="-" horiz-adv-x="827" d="M88 459l43 203h584l-43 -203h-584z" />
<glyph unicode="." horiz-adv-x="434" d="M-6 0l55 262h189l-58 -262h-186z" />
<glyph unicode="/" horiz-adv-x="1349" d="M-53 0l1259 1454h250l-1259 -1454h-250z" />
<glyph unicode="0" horiz-adv-x="1372" d="M96 567q0 100 28 206t78 204t120.5 185t155.5 151.5t182.5 102.5t203.5 38q121 0 207 -53t141.5 -138t81 -190.5t25.5 -210.5q0 -152 -60.5 -309.5t-165 -284.5t-244.5 -207.5t-298 -80.5q-121 0 -207 52t-141.5 137t-81 189.5t-25.5 208.5zM330 555q0 -72 14 -138.5 t47 -117.5t82 -82t121 -31q111 0 201 66.5t154.5 166t99 215.5t34.5 214q0 74 -15 145.5t-48 128t-82 91t-119 34.5q-113 0 -203 -70.5t-153.5 -175t-98 -225.5t-34.5 -221z" />
<glyph unicode="1" horiz-adv-x="917" d="M2 0l43 203h266l221 1036q-20 -25 -63 -54.5t-93 -57t-102.5 -46t-91.5 -18.5l45 209q51 0 112.5 29.5t115 65.5t89.5 66.5t38 34.5h229l-268 -1265h245l-43 -203h-743z" />
<glyph unicode="2" horiz-adv-x="1179" d="M-41 0q31 143 74 247.5t102.5 183.5t140 137.5t189.5 107.5q80 37 160 70.5t144.5 77.5t105 105.5t40.5 155.5q0 78 -46 129.5t-140 51.5q-59 0 -116.5 -17.5t-107.5 -45t-92 -60.5t-73 -64l-111 150q27 27 81.5 67.5t128 79.5t165.5 68t197 29q94 0 163.5 -27t115.5 -73 t70 -109.5t24 -137.5q0 -119 -39 -202.5t-103.5 -146t-149.5 -109.5t-177 -90t-161 -84t-116 -85t-75.5 -94.5t-41.5 -111.5h676l-43 -203h-985z" />
<glyph unicode="3" horiz-adv-x="1146" d="M12 285l154 143q0 -43 15.5 -85t48 -76t84 -55.5t124.5 -21.5q68 0 128.5 18.5t107.5 52.5t74.5 81t27.5 102q0 104 -95 155.5t-271 51.5h-66l41 191h66q92 0 169.5 16t135 48t89.5 79t32 109q0 90 -58.5 135t-144.5 45q-55 0 -107.5 -15.5t-97.5 -42t-80 -59.5t-57 -65 l-113 161q43 51 100.5 92t124 69t138 43.5t139.5 15.5q90 0 163.5 -26t126 -72t81 -108.5t28.5 -138.5q0 -133 -88 -233t-250 -137q109 -23 167.5 -106t58.5 -199q0 -113 -54.5 -201t-140.5 -147.5t-193.5 -91t-213.5 -31.5q-178 0 -280.5 80.5t-113.5 222.5z" />
<glyph unicode="4" horiz-adv-x="1144" d="M0 352l43 201l870 901h154l-190 -899h172l-43 -203h-172l-74 -352h-225l73 352h-608zM272 555h404l119 557z" />
<glyph unicode="5" horiz-adv-x="1112" d="M-4 244l162 129q35 -88 108.5 -140.5t167.5 -52.5q68 0 128.5 25.5t106.5 72t73.5 109t27.5 133.5q0 98 -54 158.5t-147 60.5q-72 0 -141.5 -34.5t-122.5 -98.5h-199q12 29 40 97.5t63 157.5t74 187.5t72.5 183.5t57 145.5t31.5 76.5h678l-45 -207h-512l-151 -395 q41 39 98 60.5t129 21.5q82 0 150.5 -27.5t115.5 -77t74 -119t27 -151.5q0 -125 -50.5 -231.5t-135.5 -183t-196.5 -120.5t-234.5 -44q-150 0 -254 70.5t-141 193.5z" />
<glyph unicode="6" horiz-adv-x="1210" d="M92 451q0 205 53.5 389t150.5 323.5t231.5 220t297.5 80.5q131 0 226.5 -63.5t142.5 -179.5l-162 -140q-27 86 -93.5 136.5t-160.5 50.5q-141 0 -253.5 -130t-166.5 -366q61 92 156.5 145.5t202.5 53.5q88 0 158.5 -31t122 -84t79 -126t27.5 -159q0 -121 -51.5 -227 t-137.5 -188t-197.5 -129t-232.5 -47q-188 0 -290.5 124.5t-102.5 346.5zM303 428q0 -53 16.5 -99t46 -81t71.5 -55.5t91 -20.5q66 0 129.5 29.5t114.5 81t82 117t31 139.5q0 106 -62.5 179t-165.5 73q-68 0 -131 -30t-112 -80t-80 -115.5t-31 -137.5z" />
<glyph unicode="7" horiz-adv-x="1083" d="M2 0l854 1247h-659l43 207h1015l-999 -1454h-254z" />
<glyph unicode="8" horiz-adv-x="1185" d="M45 354q0 82 29.5 149.5t77 121t102.5 92.5t108 61q-57 31 -95 93.5t-38 140.5q0 104 52.5 186t132.5 139.5t175 87t181 29.5q70 0 137.5 -21.5t121.5 -62.5t87 -102.5t33 -141.5q0 -61 -22.5 -114.5t-59.5 -98.5t-84 -79.5t-96 -55.5q70 -37 119 -113t49 -178 q0 -111 -51.5 -204t-135.5 -159.5t-191.5 -103t-221.5 -36.5q-90 0 -166 27.5t-130.5 76.5t-84 117.5t-29.5 148.5zM281 391q0 -47 18 -85t49 -64.5t71 -41t83 -14.5q57 0 114.5 21.5t104.5 60.5t76.5 92t29.5 119q0 49 -18 87t-49 63.5t-72 40t-84 14.5q-57 0 -115.5 -21.5 t-104.5 -60.5t-74.5 -93t-28.5 -118zM457 1020q0 -41 16 -70.5t42 -51t59.5 -32t68.5 -10.5q43 0 91 15.5t88 45t66.5 73.5t26.5 102q0 76 -55 118.5t-133 42.5q-49 0 -98 -16t-87 -47t-61.5 -74t-23.5 -96z" />
<glyph unicode="9" horiz-adv-x="1212" d="M63 225l162 140q27 -86 93.5 -136.5t158.5 -50.5q143 0 256 129t166 365q-59 -92 -155.5 -145.5t-202.5 -53.5q-88 0 -160 31t-123 84t-78.5 126.5t-27.5 157.5q0 121 52 228.5t138 188.5t197.5 128t232.5 47q186 0 289.5 -123.5t103.5 -347.5q0 -205 -53 -388 t-150.5 -322.5t-231.5 -221t-296 -81.5q-133 0 -228 64.5t-143 180.5zM373 907q0 -106 62.5 -179t164.5 -73q66 0 130.5 30t114.5 79t80.5 114.5t30.5 139.5q0 53 -16 99t-46 81t-72 55.5t-93 20.5q-66 0 -129 -31t-114.5 -81t-82 -116.5t-30.5 -138.5z" />
<glyph unicode=":" horiz-adv-x="450" d="M0 0l57 262h185l-56 -262h-186zM170 801l55 260h187l-56 -260h-186z" />
<glyph unicode=";" horiz-adv-x="456" d="M-16 -199l92 211h-72l51 250h201l-53 -250l-115 -211h-104zM172 801l55 260h185l-56 -260h-184z" />
<glyph unicode="&#x3c;" horiz-adv-x="1124" d="M61 469v113l861 520v-240l-535 -332l535 -323v-250z" />
<glyph unicode="=" horiz-adv-x="987" d="M164 332v149h633v-149h-633zM164 649v150h633v-150h-633z" />
<glyph unicode="&#x3e;" horiz-adv-x="1122" d="M162 -43v250l534 323l-534 332v240l862 -520v-113z" />
<glyph unicode="?" horiz-adv-x="954" d="M131 0l55 258h187l-54 -258h-188zM197 1208q39 63 91 112.5t112.5 83.5t127 51.5t131.5 17.5q63 0 123 -18.5t105 -57.5t71.5 -98.5t26.5 -141.5q0 -94 -24.5 -161.5t-66.5 -117t-98.5 -86t-119.5 -69.5q-43 -23 -85 -46.5t-78 -54t-62.5 -71.5t-38.5 -98h-189 q23 106 73 188t159 141q51 29 109.5 58.5t105.5 68.5t78.5 90.5t31.5 122.5q0 80 -49 123t-119 43q-45 0 -87 -15.5t-78.5 -41t-67.5 -58t-55 -65.5z" />
<glyph unicode="@" horiz-adv-x="1660" d="M45 326q0 199 80 366.5t208 287.5t289.5 187.5t327.5 67.5q139 0 249 -48t185.5 -129t115.5 -189.5t40 -227.5q0 -57 -10 -129t-30.5 -146.5t-52.5 -146.5t-77 -128t-103.5 -90t-129.5 -34q-63 0 -105.5 32t-42.5 103v20.5t4 20.5q-72 -68 -158.5 -107.5t-177.5 -39.5 q-76 0 -136 29.5t-102 81t-64.5 120t-22.5 146.5q0 111 42 214t112.5 182t160.5 126t189 47q106 0 173.5 -53t94.5 -133l33 166h127l-148 -703q-4 -20 -6 -37.5t-2 -29.5q0 -78 66 -78q61 0 110 55t84 137t53.5 176.5t18.5 171.5q0 102 -33 197.5t-98.5 168.5t-161.5 117 t-221 44q-150 0 -290 -62.5t-250 -171t-175.5 -256t-65.5 -315.5q0 -117 34 -216.5t96.5 -171t153.5 -112.5t206 -41q82 0 156.5 21.5t158.5 56.5l11 -90q-88 -41 -175.5 -61.5t-171.5 -20.5q-127 0 -231 45t-180 127t-117 196.5t-41 256.5zM475 401q0 -61 17.5 -114.5 t50 -91t76 -59t96.5 -21.5q47 0 92 17.5t84 48t69.5 70.5t49.5 85l45 272q-27 104 -87.5 155.5t-138.5 51.5q-61 0 -124.5 -32.5t-114.5 -88t-83 -131.5t-32 -162z" />
<glyph unicode="A" horiz-adv-x="1329" d="M-102 0l850 1454h202l234 -1454h-242l-57 395h-523l-223 -395h-241zM438 565h439l-82 625z" />
<glyph unicode="B" horiz-adv-x="1333" d="M31 0l309 1454h719q61 0 107 -25.5t77 -66.5t46.5 -94.5t15.5 -110.5q0 -63 -19.5 -125.5t-56.5 -117t-89.5 -98.5t-115.5 -71q92 -31 140 -107.5t48 -182.5t-44 -190.5t-115.5 -143t-164.5 -90t-194 -31.5h-663zM305 199h430q47 0 92 21.5t80 58t56.5 85t21.5 101.5 q0 72 -38 125t-103 53h-447zM436 827h391q45 0 88 20.5t76 55.5t52.5 83t19.5 104q0 72 -36 118.5t-95 46.5h-404z" />
<glyph unicode="C" horiz-adv-x="1341" d="M84 604q0 150 63.5 302.5t176 276.5t267 201.5t337.5 77.5q188 0 305 -88t153 -229l-204 -121q-14 66 -45 111t-73 71.5t-91 37.5t-99 11q-125 0 -227 -59t-175 -152.5t-113 -206t-40 -219.5q0 -86 23 -162.5t66 -135t105 -92t142 -33.5q49 0 105.5 13t111 43t104.5 75 t91 108l168 -108q-49 -82 -123 -144.5t-160 -105.5t-177 -65.5t-173 -22.5q-123 0 -220 52t-162.5 138t-100.5 196.5t-35 229.5z" />
<glyph unicode="D" horiz-adv-x="1417" d="M31 0l309 1454h494q139 0 241.5 -43t169 -118.5t99 -178t32.5 -221.5q0 -193 -64.5 -356.5t-178 -282.5t-270 -186.5t-339.5 -67.5h-493zM305 203h262q131 0 236.5 53t180.5 144.5t115 210t40 247.5q0 86 -22.5 157.5t-65.5 124t-108.5 82t-151.5 29.5h-263z" />
<glyph unicode="E" horiz-adv-x="1185" d="M31 0l309 1454h932l-43 -203h-701l-88 -413h607l-39 -191h-609l-94 -444h719l-43 -203h-950z" />
<glyph unicode="F" horiz-adv-x="1148" d="M31 0l309 1454h922l-43 -203h-691l-92 -434h578l-41 -190h-578l-133 -627h-231z" />
<glyph unicode="G" horiz-adv-x="1415" d="M84 594q0 170 69.5 327.5t186.5 278.5t267.5 192.5t312.5 71.5q199 0 314.5 -87t156.5 -230l-201 -127q-33 119 -118 178t-204 59q-111 0 -211 -55t-174.5 -146t-119 -207t-44.5 -237q0 -86 24 -161.5t68 -132t107.5 -89t140.5 -32.5q213 0 426 215l33 153h-287l37 170 h478l-156 -735h-193l37 178q-213 -188 -436 -188q-117 0 -212 48t-162.5 130t-103.5 192.5t-36 233.5z" />
<glyph unicode="H" horiz-adv-x="1464" d="M31 0l309 1454h231l-129 -608h680l129 608h230l-310 -1454h-229l137 641h-680l-137 -641h-231z" />
<glyph unicode="I" horiz-adv-x="555" d="M31 0l309 1452h231l-309 -1452h-231z" />
<glyph unicode="J" horiz-adv-x="972" d="M-84 68l94 188q27 -25 86.5 -48.5t143.5 -23.5q88 0 147 34t101 100.5t72 166t58 230.5l158 737h230l-158 -737q-35 -166 -79 -302.5t-116.5 -232.5t-181 -149.5t-274.5 -53.5q-174 0 -281 91z" />
<glyph unicode="K" horiz-adv-x="1298" d="M31 0l309 1452h231l-159 -747l790 749h256l-678 -643l400 -811h-258l-316 670l-252 -232l-92 -438h-231z" />
<glyph unicode="L" horiz-adv-x="1146" d="M31 0l309 1454h231l-266 -1251h731l-43 -203h-962z" />
<glyph unicode="M" horiz-adv-x="1708" d="M31 0l309 1454h246l258 -889l637 889h243l-309 -1454h-231l223 1047l-565 -793h-127l-230 793l-223 -1047h-231z" />
<glyph unicode="N" horiz-adv-x="1507" d="M31 0l309 1454h180l551 -1048l221 1046h232l-310 -1452h-188l-547 1024l-217 -1024h-231z" />
<glyph unicode="O" horiz-adv-x="1484" d="M84 592q0 166 70.5 322.5t187.5 279.5t268.5 196.5t315.5 73.5q127 0 224 -51t162.5 -135t99.5 -193.5t34 -226.5q0 -164 -69.5 -320.5t-185.5 -278.5t-267.5 -195.5t-315.5 -73.5q-127 0 -224 50t-163.5 133t-101.5 191.5t-35 227.5zM319 610q0 -84 21.5 -158.5 t62.5 -131t103.5 -90t146.5 -33.5q119 0 221.5 58t177 151.5t116.5 208t42 227.5q0 82 -21.5 157.5t-63.5 132t-103 90t-143 33.5q-121 0 -222.5 -58t-177.5 -150.5t-118 -208t-42 -228.5z" />
<glyph unicode="P" horiz-adv-x="1230" d="M31 0l309 1454h582q80 0 143 -32.5t107.5 -88t68 -126t23.5 -146.5q0 -100 -43 -199.5t-116 -178.5t-170 -128t-206 -49h-360l-107 -506h-231zM412 709h348q53 0 101 26.5t85 72.5t58.5 106.5t21.5 127.5q0 94 -46 151.5t-118 57.5h-334z" />
<glyph unicode="Q" horiz-adv-x="1482" d="M82 592q0 166 70.5 322.5t187.5 279.5t269.5 196.5t316.5 73.5q125 0 222 -51t163.5 -135t100.5 -193.5t34 -226.5q0 -182 -84 -352t-221 -295l135 -211h-223l-64 98q-88 -51 -184 -79.5t-197 -28.5q-127 0 -225 50t-164.5 133t-101.5 191.5t-35 227.5zM319 610 q0 -84 21.5 -158.5t62.5 -131t103.5 -90t146.5 -33.5q63 0 122 17t112 48l-154 244h219l78 -123q86 96 133 217t47 242q0 82 -21.5 157.5t-63.5 133t-104.5 91t-143.5 33.5q-119 0 -221.5 -58t-177.5 -151.5t-117 -209t-42 -228.5z" />
<glyph unicode="R" horiz-adv-x="1304" d="M31 0l309 1454h604q80 0 143.5 -32.5t107.5 -88t66.5 -126t22.5 -146.5q0 -82 -28.5 -162t-78 -148.5t-116 -120.5t-143.5 -77l204 -553h-260l-188 506h-305l-107 -506h-231zM412 709h370q51 0 99.5 27.5t85.5 73.5t58.5 105.5t21.5 120.5q0 92 -45.5 153.5t-114.5 61.5 h-359z" />
<glyph unicode="S" horiz-adv-x="1208" d="M-35 182l150 197q16 -27 56 -59.5t96.5 -60.5t127 -47t150.5 -19q147 0 225 58t78 163q0 45 -23.5 76.5t-65.5 56t-102.5 44t-134.5 42.5q-164 47 -249 115.5t-85 195.5q0 123 49.5 219.5t132.5 164t192.5 102t232.5 34.5q141 0 251.5 -47t184.5 -117l-144 -188 q-12 23 -44.5 48.5t-77.5 48t-101.5 37t-118.5 14.5q-156 0 -230.5 -67t-74.5 -171q0 -41 18.5 -69.5t55.5 -50t91 -40t126 -37.5q86 -23 154.5 -51.5t118 -67t76 -93t26.5 -130.5q0 -129 -50 -223t-135 -155.5t-194.5 -90t-228.5 -28.5q-158 0 -296.5 50t-236.5 146z" />
<glyph unicode="T" horiz-adv-x="1206" d="M166 1251l43 203h1141l-43 -203h-455l-266 -1251h-230l265 1251h-455z" />
<glyph unicode="U" horiz-adv-x="1478" d="M135 477q0 113 29 240l155 737h232l-158 -737q-22 -104 -22 -191v-8q0 -68 14 -127t47 -102t86 -67.5t131 -24.5q106 0 186 45t138.5 117.5t96.5 165.5t58 192l156 737h232l-158 -737q-31 -150 -92.5 -282t-154.5 -231.5t-219 -156.5t-286 -57q-129 0 -219 38 t-145.5 103.5t-81 154.5t-25.5 191z" />
<glyph unicode="V" horiz-adv-x="1327" d="M186 1454h244l158 -1165l651 1165h244l-858 -1454h-197z" />
<glyph unicode="W" horiz-adv-x="2052" d="M180 1454h248l170 -1188l313 535l-98 647h215l62 -494l272 494h215l-373 -647l84 -535l674 1188h252l-879 -1454h-194l-115 651l-393 -651h-195z" />
<glyph unicode="X" d="M-113 0l641 717l-348 737h254l252 -573l496 573h252l-660 -737l334 -717h-252l-240 553l-475 -553h-254z" />
<glyph unicode="Y" d="M174 1454h252l217 -729l533 729h249l-710 -934l-111 -520h-231l112 524z" />
<glyph unicode="Z" horiz-adv-x="1224" d="M-72 0l39 176l1053 1075h-803l43 203h1071l-37 -176l-1032 -1075h805l-43 -203h-1096z" />
<glyph unicode="[" horiz-adv-x="577" d="M12 -82l340 1598h326l-37 -183h-121l-262 -1233h121l-39 -182h-328z" />
<glyph unicode="\" horiz-adv-x="1185" d="M221 1454h252l537 -1454h-250z" />
<glyph unicode="]" horiz-adv-x="579" d="M-57 -82l39 182h118l262 1233h-118l39 183h327l-338 -1598h-329z" />
<glyph unicode="^" horiz-adv-x="1171" d="M100 621l406 833h190l404 -833h-189l-309 639l-317 -639h-185z" />
<glyph unicode="_" horiz-adv-x="962" d="M-55 -203l43 203h721l-43 -203h-721z" />
<glyph unicode="`" horiz-adv-x="479" d="M135 1495h213l62 -225l-156 -39z" />
<glyph unicode="a" horiz-adv-x="1167" d="M-102 0l718 1137h168l234 -1137h-213l-60 295h-446l-182 -295h-219zM381 471h354l-88 416z" />
<glyph unicode="b" horiz-adv-x="1165" d="M18 0l242 1137h619q53 0 93 -20.5t66.5 -53.5t40 -76t13.5 -88q0 -49 -16.5 -97t-46.5 -90t-73 -75t-96 -53q78 -25 122 -85.5t44 -146.5q0 -84 -37 -149.5t-97.5 -110.5t-140 -68.5t-165.5 -23.5h-568zM260 174h361q39 0 75.5 15.5t64 41t45 59.5t17.5 70 q0 53 -32.5 93.5t-88.5 40.5h-376zM360 655h332q37 0 71 13.5t59.5 38t42 58.5t16.5 75q0 53 -32 85.5t-85 32.5h-338z" />
<glyph unicode="c" horiz-adv-x="1167" d="M55 479q0 117 52.5 234.5t146.5 213t223 156t283 60.5q160 0 261 -68.5t132 -179.5l-178 -109q-12 49 -40 83t-63.5 53.5t-76.5 29t-80 9.5q-102 0 -185.5 -43.5t-142.5 -111t-91 -150.5t-32 -162q0 -66 19.5 -123.5t56.5 -102.5t90 -70.5t121 -25.5q84 0 179 42t161 138 l145 -98q-41 -63 -103.5 -112.5t-134 -83t-147 -51t-145.5 -17.5q-109 0 -192 41t-141 109.5t-88 156.5t-30 182z" />
<glyph unicode="d" horiz-adv-x="1247" d="M18 0l242 1137h428q123 0 213 -35t150.5 -95.5t89 -143.5t28.5 -177q0 -150 -55 -275.5t-151.5 -217t-228.5 -142.5t-288 -51h-428zM260 180h225q109 0 197 39t149.5 103.5t94 150.5t32.5 182q0 135 -77.5 218t-231.5 83h-223z" />
<glyph unicode="e" horiz-adv-x="1050" d="M18 0l242 1137h809l-39 -181h-604l-64 -294h525l-35 -166h-524l-68 -316h621l-39 -180h-824z" />
<glyph unicode="f" horiz-adv-x="1013" d="M18 0l242 1137h799l-39 -181h-594l-68 -311h500l-37 -168h-497l-103 -477h-203z" />
<glyph unicode="g" horiz-adv-x="1220" d="M57 477q0 131 57.5 252t152.5 213t221 147.5t262 55.5q166 0 264 -68.5t133 -179.5l-178 -115q-27 90 -97.5 135.5t-166.5 45.5q-90 0 -171 -40t-140.5 -106.5t-94.5 -151.5t-35 -176q0 -68 20.5 -125t57.5 -99t90 -66.5t119 -24.5q168 0 344 160l20 96h-243l30 150h416 l-123 -580h-170l27 131q-172 -139 -356 -139q-100 0 -181.5 40t-138.5 106.5t-88 154.5t-31 184z" />
<glyph unicode="h" horiz-adv-x="1286" d="M18 0l242 1137h203l-98 -465h583l96 465h205l-241 -1137h-203l102 492h-581l-105 -492h-203z" />
<glyph unicode="i" horiz-adv-x="501" d="M18 0l242 1137h203l-242 -1137h-203z" />
<glyph unicode="j" horiz-adv-x="864" d="M-80 51l84 168q23 -18 75 -36.5t126 -18.5q76 0 126 24.5t84 73.5t56.5 124t42.5 173l123 578h205l-125 -578q-29 -129 -64 -235.5t-95 -182t-154.5 -116.5t-237.5 -41q-154 0 -246 67z" />
<glyph unicode="k" horiz-adv-x="1148" d="M18 0l242 1137h203l-121 -572l672 572h215l-572 -504l359 -633h-217l-291 516l-213 -172l-74 -344h-203z" />
<glyph unicode="l" horiz-adv-x="954" d="M18 0l242 1137h203l-203 -957h580l-37 -180h-785z" />
<glyph unicode="m" horiz-adv-x="1497" d="M18 0l242 1137h219l240 -666l522 666h217l-241 -1137h-203l166 778l-465 -583h-111l-217 583l-166 -778h-203z" />
<glyph unicode="n" horiz-adv-x="1323" d="M18 0l242 1137h158l500 -775l163 775h205l-242 -1137h-167l-494 758l-162 -758h-203z" />
<glyph unicode="o" horiz-adv-x="1284" d="M53 471q0 129 58.5 250t154.5 214t223 150.5t267 57.5q111 0 194.5 -40t141 -107.5t87 -154.5t29.5 -179q0 -127 -57 -248t-153.5 -215.5t-223.5 -150.5t-266 -56q-109 0 -194 40t-143 106.5t-88 152.5t-30 180zM262 492q0 -63 18.5 -121t54.5 -102t90 -69.5t126 -25.5 q98 0 180 43t141.5 110.5t93 150.5t33.5 165q0 63 -18 120.5t-54 101.5t-89.5 70t-122.5 26q-98 0 -181 -42t-143.5 -110t-94.5 -152t-34 -165z" />
<glyph unicode="p" horiz-adv-x="1087" d="M18 0l242 1137h504q70 0 126 -27t95 -71t59.5 -101t20.5 -117q0 -80 -36 -157.5t-97.5 -139t-143 -99.5t-176.5 -38h-309l-82 -387h-203zM342 565h297q45 0 84 18.5t68.5 50.5t47 75t17.5 92q0 72 -41 113.5t-102 41.5h-287z" />
<glyph unicode="q" horiz-adv-x="1284" d="M53 471q0 129 58.5 250t154.5 215t223 151.5t267 57.5q111 0 194.5 -41t141 -108.5t87 -154.5t29.5 -179q0 -137 -65.5 -265.5t-175.5 -224.5l120 -172h-194l-57 80q-74 -41 -157 -64.5t-171 -23.5q-109 0 -194 40t-143 106.5t-88 152.5t-30 180zM262 492 q0 -63 18.5 -121t54.5 -102t90 -69.5t126 -25.5q96 0 186 45l-133 191h197l63 -93q63 70 99 156t36 172q0 63 -18 120.5t-54 101.5t-89.5 70t-122.5 26q-98 0 -181 -43t-143.5 -111t-94.5 -152t-34 -165z" />
<glyph unicode="r" horiz-adv-x="1157" d="M18 0l242 1137h522q72 0 128.5 -27t94 -71t58 -101t20.5 -117q0 -63 -22.5 -124.5t-63.5 -114t-96 -92t-121 -62.5l193 -428h-234l-174 387h-262l-82 -387h-203zM342 565h315q43 0 82 19.5t70 51.5t48 74t17 87q0 70 -39.5 114.5t-103.5 44.5h-305z" />
<glyph unicode="s" horiz-adv-x="1050" d="M-41 137l131 176q18 -25 52 -50t82 -45.5t106.5 -34t126.5 -13.5q113 0 175 40t62 114q0 33 -19.5 56t-55 40.5t-86 33t-113.5 31.5q-139 37 -210 93.5t-71 160.5q0 96 41 171t110.5 127.5t161 80t193.5 27.5q121 0 214 -37t157 -92l-123 -166q-29 39 -107.5 77 t-183.5 38q-125 0 -183.5 -46.5t-58.5 -117.5q0 -59 61.5 -88t182.5 -60q72 -18 131.5 -40.5t101.5 -53.5t64.5 -74t22.5 -104q0 -104 -42 -178t-113 -122t-163 -70.5t-192 -22.5q-131 0 -250 39t-205 110z" />
<glyph unicode="t" horiz-adv-x="1067" d="M111 956l39 181h987l-37 -181h-391l-203 -956h-205l205 956h-395z" />
<glyph unicode="u" horiz-adv-x="1282" d="M98 387q0 41 5.5 84t15.5 88l123 578h202l-120 -578q-8 -35 -12.5 -67.5t-4.5 -65.5q0 -53 12.5 -99t41 -80t74.5 -53.5t112 -19.5q88 0 154.5 33t114.5 86t77 122.5t45 143.5l121 578h205l-123 -578q-25 -117 -75 -220t-129 -180t-185.5 -122t-241.5 -45 q-113 0 -190.5 30.5t-127 84t-72 125t-22.5 155.5z" />
<glyph unicode="v" horiz-adv-x="1161" d="M123 1137h215l168 -850l524 850h215l-715 -1137h-174z" />
<glyph unicode="w" horiz-adv-x="1794" d="M121 1137h219l184 -891l238 372l-94 512h188l62 -378l225 378h188l-311 -512l82 -372l559 891h223l-735 -1137h-170l-115 489l-321 -489h-174z" />
<glyph unicode="x" horiz-adv-x="1116" d="M-102 0l540 561l-313 576h223l230 -432l411 432h223l-557 -576l303 -561h-223l-219 416l-395 -416h-223z" />
<glyph unicode="y" horiz-adv-x="1103" d="M113 1137h221l201 -557l440 557h223l-600 -736l-84 -401h-205l88 403z" />
<glyph unicode="z" horiz-adv-x="1093" d="M-61 0l34 156l877 800h-688l37 181h927l-32 -156l-861 -801h693l-39 -180h-948z" />
<glyph unicode="{" horiz-adv-x="583" d="M47 -25q0 14 2 23l113 532q2 10 2 31q0 39 -17.5 65.5t-48.5 32.5l35 160q20 0 40 12.5t36 32t27.5 41t15.5 39.5l106 510q8 39 29 50.5t31 11.5h266l-41 -183h-106l-99 -459q-8 -35 -31.5 -71.5t-60.5 -65.5q37 -41 37 -104v-15.5t-2 -17.5l-102 -481h106l-37 -182h-266 q-12 0 -23.5 8t-11.5 30z" />
<glyph unicode="|" horiz-adv-x="643" d="M236 -266v1853h192v-1853h-192z" />
<glyph unicode="}" horiz-adv-x="585" d="M-49 -63l39 182h106l103 481q8 35 31.5 72t58.5 65q-35 45 -35 103v17t4 17l96 459h-106l39 183h264q10 0 22.5 -8.5t12.5 -34.5q0 -12 -2 -19l-109 -510q-4 -16 -4 -26q0 -35 17.5 -67t52.5 -32l-35 -160q-41 -8 -75 -43.5t-44 -85.5l-113 -532q-8 -35 -26.5 -48 t-32.5 -13h-264z" />
<glyph unicode="~" horiz-adv-x="1083" d="M92 475q2 14 21.5 55t56.5 84t91 77t126 34q51 0 91 -17.5t76 -39t72 -39t79 -17.5q39 0 68.5 15.5t48 34t27.5 35t9 20.5h127q-2 -8 -20.5 -47t-56.5 -82t-94 -78t-132 -35q-51 0 -92 17.5t-77 39t-71.5 39t-74.5 17.5t-67 -17.5t-45 -38t-25.5 -38t-8.5 -19.5h-129z " />
<glyph unicode="&#xa1;" horiz-adv-x="559" d="M35 -8l201 950h225l-201 -950h-225zM287 1180l59 280h225l-59 -280h-225z" />
<glyph unicode="&#xa2;" horiz-adv-x="1144" d="M55 432q0 113 43 222.5t120 200.5t185.5 152.5t241.5 79.5l51 234h103l-49 -234q139 -4 231 -72.5t127 -191.5l-234 -69q-18 63 -62 97t-103 38l-152 -711q31 4 64.5 15.5t65.5 30t58.5 43t40.5 52.5l207 -65q-41 -68 -102.5 -120t-128 -86t-132 -51t-116.5 -17l-47 -226 h-105l50 228q-84 6 -150.5 47t-113 103.5t-70 140t-23.5 159.5zM289 455q0 -94 44 -170t122 -97l147 693q-68 -12 -125 -54.5t-99 -102.5t-65.5 -130.5t-23.5 -138.5z" />
<glyph unicode="&#xa3;" horiz-adv-x="1038" d="M6 145q162 129 234.5 233.5t76.5 223.5h-206l34 172h152q-16 68 -32.5 134.5t-16.5 131.5q0 88 40 165t106.5 134.5t151.5 91t175 33.5q117 0 207 -57t137 -158l-150 -139q-31 78 -96 124t-139 46q-47 0 -88 -18.5t-73 -51t-50 -76.5t-18 -94q0 -61 18 -126.5t35 -139.5 h356l-37 -172h-307q-4 -51 -17.5 -98t-44 -96.5t-79.5 -105.5t-125 -126q43 10 79 16.5t70 6.5q37 0 70 -6.5t63.5 -12.5t61.5 -12t65 -6q35 0 73 9t89 26l19 -168q-53 -29 -114.5 -44.5t-117.5 -15.5q-45 0 -86 8.5t-82 19.5t-83 19.5t-89 8.5q-49 0 -116.5 -11.5 t-128.5 -29.5z" />
<glyph unicode="&#xa4;" horiz-adv-x="1169" d="M137 326l146 145q-66 96 -66 219q0 61 15.5 116.5t48.5 102.5l-144 146l99 96l143 -145q45 31 100.5 48t120.5 17q63 0 117.5 -17.5t101.5 -47.5l144 145l98 -96l-143 -144q31 -47 48 -103t17 -118q0 -61 -17.5 -117.5t-50.5 -103.5l146 -143l-88 -86l-150 139 q-45 -31 -101 -49.5t-122 -18.5q-68 0 -124 18.5t-103 49.5l-148 -139zM391 688q0 -49 16.5 -91t44 -72.5t66.5 -48t82 -17.5q88 0 148.5 66.5t60.5 166.5t-60.5 165t-148.5 65t-148.5 -66t-60.5 -168z" />
<glyph unicode="&#xa5;" horiz-adv-x="1376" d="M201 311l32 150h295l15 63l-39 123h-232l33 150h152l-224 657h250l215 -729l531 729h254l-506 -657h151l-32 -150h-230l-96 -127l-12 -59h299l-31 -150h-301l-66 -311h-229l66 311h-295z" />
<glyph unicode="&#xa6;" horiz-adv-x="630" d="M229 -266v817h193v-817h-193zM229 770v817h193v-817h-193z" />
<glyph unicode="&#xa7;" horiz-adv-x="1036" d="M-12 23l174 139q49 -68 104.5 -97.5t124.5 -29.5q43 0 85 13t77 39t56.5 63.5t21.5 85.5q0 35 -14.5 55t-36 31.5t-50 16.5t-55.5 7q-160 10 -246 84t-86 203q0 86 31 141t53 84q-18 23 -30.5 67t-12.5 99q0 92 42 172t112 139.5t158 94t178 34.5q82 0 140 -22.5t99 -56 t68 -74.5t43 -78l-193 -82q-16 57 -68 85t-118 28q-43 0 -84 -14.5t-73.5 -41t-52 -65.5t-19.5 -86q0 -70 45 -94.5t114 -26.5q63 -2 126 -16.5t112 -47t80 -84t31 -126.5q0 -39 -9.5 -75t-22.5 -67t-30 -55.5t-31 -38.5q41 -41 41 -137q0 -123 -52 -212t-130 -146.5 t-168 -84t-166 -26.5q-74 0 -134 20.5t-105 51t-78 65.5t-51 66zM360 633q0 -57 32 -83t76 -36t91 -13t76 -18q29 23 49.5 62t20.5 80q0 37 -14.5 61.5t-38 39.5t-52.5 21.5t-55 6.5q-35 0 -69 6t-52 16q-23 -23 -43.5 -60.5t-20.5 -82.5z" />
<glyph unicode="&#xa8;" horiz-adv-x="819" d="M150 1260l49 225h186l-47 -225h-188zM502 1260l47 225h186l-47 -225h-186z" />
<glyph unicode="&#xa9;" horiz-adv-x="1744" d="M129 727q0 158 57.5 293t158.5 233.5t241.5 154.5t304.5 56q166 0 307 -56t244.5 -154.5t162 -233.5t58.5 -293q0 -160 -58.5 -295t-162 -234.5t-244.5 -155.5t-307 -56q-164 0 -304.5 56t-241.5 155.5t-158.5 234.5t-57.5 295zM225 725q0 -137 50.5 -256t139.5 -206 t211 -137t265 -50q141 0 265 47t214 133t142.5 205t52.5 262q0 139 -51.5 258t-141.5 207t-213 137t-268 49q-143 0 -265 -49t-211 -137t-139.5 -207t-50.5 -256zM406 727q0 90 30.5 177t92 155.5t154.5 110.5t216 42q154 0 266.5 -66.5t165.5 -182.5l-217 -70 q-18 37 -44 61.5t-54.5 38t-59 19.5t-57.5 6q-63 0 -112.5 -24.5t-83 -64.5t-51 -93.5t-17.5 -108.5q0 -70 24.5 -124t62.5 -91t86 -56.5t95 -19.5q66 0 128.5 34t90.5 95l219 -65q-20 -47 -59 -93.5t-94 -82t-126 -58t-155 -22.5q-106 0 -198.5 35.5t-160 100t-105 154 t-37.5 193.5z" />
<glyph unicode="&#xaa;" horiz-adv-x="862" d="M143 887q0 61 28 112.5t75 88t109.5 57t133.5 20.5q96 0 166 -32l11 45q6 25 6 45q0 115 -129 114q-55 0 -112.5 -20.5t-123.5 -61.5l-28 109q156 94 303 94q123 0 190.5 -55t67.5 -160q0 -35 -11 -86l-51 -242q-2 -8 -2 -20q0 -31 37 -33l-33 -149q-20 -4 -37.5 -6 t-31.5 -2q-100 0 -101 73q0 16 8 56q-61 -66 -134.5 -100t-149.5 -34q-86 0 -138.5 53.5t-52.5 133.5zM309 924q0 -41 28 -69t73 -28q31 0 64.5 10.5t63 27t51 38t25.5 45.5l19 88q-27 16 -64 22.5t-71 6.5q-78 0 -133.5 -39t-55.5 -102z" />
<glyph unicode="&#xab;" horiz-adv-x="1230" d="M47 469l25 113l585 379l-41 -187l-376 -244l274 -235l-39 -184zM575 469l23 113l586 379l-39 -187l-377 -244l276 -235l-40 -184z" />
<glyph unicode="&#xac;" horiz-adv-x="1187" d="M121 590l43 203h923l-118 -562h-193l76 359h-731z" />
<glyph unicode="&#xad;" horiz-adv-x="1169" d="M88 459l43 203h926l-45 -203h-924z" />
<glyph unicode="&#xae;" horiz-adv-x="1744" d="M129 727q0 158 57.5 293t160 233.5t241.5 154.5t305 56t306 -56t243.5 -154.5t162 -233.5t58.5 -293q0 -160 -58.5 -295t-162 -234.5t-243.5 -155.5t-306 -56t-305 56t-241.5 155.5t-160 234.5t-57.5 295zM229 727q0 -139 49.5 -258t138.5 -207t210 -138t266 -50 q141 0 263 47t213 133t142.5 206t51.5 265q0 137 -50.5 256t-140.5 206t-213 137t-266 50q-145 0 -266 -50t-210 -137t-138.5 -205t-49.5 -255zM569 272v910h396q61 0 113 -26t89 -67.5t58.5 -95t21.5 -108.5q0 -92 -50 -166t-130 -101l217 -346h-182l-201 318h-170v-318 h-162zM731 731h223q63 0 98 42t35 112q0 72 -39.5 111.5t-99.5 39.5h-217v-305z" />
<glyph unicode="&#xaf;" horiz-adv-x="804" d="M156 1315l28 143h580l-31 -143h-577z" />
<glyph unicode="&#xb0;" horiz-adv-x="555" d="M221 1245q0 45 18.5 87t50.5 76t75 54.5t92 20.5q72 0 112.5 -45t40.5 -111q0 -49 -19.5 -92t-51 -75t-74.5 -50t-92 -18q-68 0 -110 43t-42 110zM336 1274q0 -31 16 -49.5t45 -18.5q35 0 66 29t31 68q0 31 -16.5 48t-45.5 17q-35 0 -65.5 -28.5t-30.5 -65.5z" />
<glyph unicode="&#xb1;" horiz-adv-x="1017" d="M133 82v182h703v-182h-703zM135 672v182h248v268h203v-268h250v-182h-250v-271h-203v271h-248z" />
<glyph unicode="&#xb2;" horiz-adv-x="802" d="M109 809q16 82 42.5 143.5t66.5 107.5t96.5 81t129.5 63q53 20 107.5 40t98.5 44.5t72 57t28 81.5q0 47 -38 76t-114 29q-90 0 -156.5 -35t-107.5 -70l-66 99q16 16 50 40.5t82.5 46t110.5 37t134 15.5q131 0 196.5 -56.5t65.5 -152.5q0 -68 -23.5 -117t-65.5 -85.5 t-102.5 -64.5t-133.5 -52q-115 -37 -165 -90.5t-61 -104.5h426l-28 -133h-645z" />
<glyph unicode="&#xb3;" horiz-adv-x="788" d="M133 965l96 98q2 -18 14.5 -41t39 -42t66.5 -32.5t95 -13.5q43 0 84 9t73 26.5t51.5 42t19.5 55.5q0 59 -70 87t-192 28h-48l27 125h45q129 0 209 32.5t80 98.5q0 51 -47 75.5t-109 24.5q-76 0 -137 -28.5t-106 -75.5l-64 106q27 31 64.5 53.5t82 39t92.5 24.5t95 8 q127 0 202.5 -56.5t75.5 -148.5q0 -80 -60 -134t-165 -75q78 -12 120 -61t42 -121q0 -68 -35 -118t-91 -85t-125.5 -52t-139.5 -17q-117 0 -187.5 45t-97.5 123z" />
<glyph unicode="&#xb4;" horiz-adv-x="477" d="M53 1270l156 225h215l-227 -262z" />
<glyph unicode="&#xb5;" horiz-adv-x="1267" d="M-74 -434l322 1505h225l-131 -610q-16 -72 -16 -123q0 -166 147 -166q86 0 177 59.5t161 171.5l141 668h226l-170 -805q-2 -10 -3 -16t-1 -14q0 -41 53 -43l-43 -193q-31 -4 -55.5 -7t-43.5 -3q-61 0 -96 26.5t-35 73.5q0 16 3.5 43t17.5 84q-29 -43 -73 -86t-95 -77 t-107.5 -54t-109.5 -20q-78 0 -118 39.5t-46 99.5l-104 -553h-226z" />
<glyph unicode="&#xb6;" horiz-adv-x="1257" d="M129 827q0 141 47 257t134 198t212 127t281 45h545l-37 -172h-137l-308 -1446h-192l129 606h-111l-131 -606h-192l131 606q-178 4 -274.5 107.5t-96.5 277.5zM324 858q0 -117 59 -177t152 -67l143 668q-80 -2 -145.5 -36t-111.5 -91t-71.5 -134t-25.5 -163zM727 614h111 l143 668h-111z" />
<glyph unicode="&#xb7;" horiz-adv-x="432" d="M96 498l60 280h186l-59 -280h-187z" />
<glyph unicode="&#xb8;" horiz-adv-x="608" d="M-33 -346l68 88q20 -14 65 -27.5t97 -13.5q59 0 94 19.5t35 64.5q0 31 -25 43t-63 12q-41 0 -88.5 -8t-73.5 -16l166 233l86 -31l-92 -110q16 4 33.5 6t31.5 2q59 0 97 -26.5t38 -82.5q0 -84 -68.5 -139t-205.5 -55q-61 0 -110.5 12.5t-84.5 28.5z" />
<glyph unicode="&#xb9;" horiz-adv-x="569" d="M137 809l31 135h154l120 572q-12 -14 -37.5 -32t-55.5 -33t-59.5 -26.5t-53.5 -11.5l28 137q31 0 67 17.5t67.5 38t53 39t21.5 20.5h139l-153 -721h139l-29 -135h-432z" />
<glyph unicode="&#xba;" horiz-adv-x="878" d="M166 1004q0 88 35 169.5t95 145t142 101.5t178 38q70 0 123.5 -24.5t90 -65.5t55 -96t18.5 -119q0 -86 -33.5 -168t-94 -144.5t-142.5 -101.5t-178 -39q-72 0 -125.5 25t-90 65.5t-55 96t-18.5 117.5zM342 1026q0 -78 38.5 -128t104.5 -50q45 0 89 22.5t79 61.5t55.5 90 t20.5 108q0 78 -40 128.5t-105 50.5q-47 0 -90 -22.5t-77 -60.5t-54.5 -90.5t-20.5 -109.5z" />
<glyph unicode="&#xbb;" horiz-adv-x="1230" d="M10 111l41 184l375 235l-272 244l36 187l426 -379l-24 -113zM541 111l39 184l374 235l-274 244l41 187l424 -379l-25 -113z" />
<glyph unicode="&#xbc;" horiz-adv-x="1693" d="M117 641l30 135h154l121 572q-14 -14 -40 -32t-54.5 -33t-59 -26.5t-53.5 -11.5l29 135q31 0 66.5 17.5t67.5 39t53.5 40t21.5 20.5h139l-156 -721h142l-29 -135h-432zM180 82l692 682l662 702l86 -92l-680 -674l-674 -712zM846 199l28 131l586 518h94l-110 -516h119 l-29 -133h-117l-43 -199h-135l41 199h-434zM1010 332h305l71 342z" />
<glyph unicode="&#xbd;" horiz-adv-x="1755" d="M111 82l692 682l661 702l86 -92l-680 -674l-673 -712zM119 641l31 135h153l121 572q-14 -14 -40 -32t-54.5 -33t-59 -26.5t-53.5 -11.5l29 135q31 0 66.5 17.5t67.5 39t53.5 40t21.5 20.5h139l-156 -721h142l-29 -135h-432zM905 0q16 82 42 143.5t64 107.5t92 81t126 63 q51 20 104 39t95 43.5t69 58t27 82.5q0 47 -37 76t-109 29q-86 0 -151.5 -36t-104.5 -71l-63 101q16 16 49 40.5t80 46t106.5 37t130.5 15.5q125 0 187.5 -56.5t62.5 -152.5q0 -66 -20.5 -115t-60.5 -85.5t-97 -65.5t-133 -53q-113 -37 -161 -90.5t-58 -104.5h432l-31 -133 h-641z" />
<glyph unicode="&#xbe;" horiz-adv-x="1714" d="M113 797l96 98q0 -18 13.5 -39.5t39 -42t64.5 -34t92 -13.5q45 0 88 9t74.5 26.5t51 43t19.5 56.5q0 55 -70.5 84t-193.5 29h-45l25 125h45q131 0 210.5 32.5t79.5 100.5q0 47 -48 72.5t-107 25.5q-78 0 -139.5 -29.5t-104.5 -76.5l-65 108q27 31 64.5 53.5t82.5 39 t93 24.5t95 8q125 0 202 -57.5t77 -143.5q0 -84 -60.5 -138t-166.5 -75q78 -12 120.5 -62t42.5 -118t-34.5 -120t-91 -86.5t-128 -52t-145.5 -17.5q-123 0 -196.5 45t-79.5 125zM244 82l692 682l661 702l86 -92l-679 -674l-674 -712zM862 199l29 131l586 518h94l-111 -516 h119l-29 -133h-116l-43 -199h-136l41 199h-434zM1026 332h305l72 342z" />
<glyph unicode="&#xbf;" horiz-adv-x="944" d="M-78 -121q0 94 24.5 162t66.5 117t98.5 86t119.5 69q43 23 85 46.5t78 54t62.5 71.5t39.5 99h188q-23 -106 -73 -188.5t-158 -141.5q-53 -29 -110.5 -58.5t-105 -68.5t-79 -90t-31.5 -123q0 -80 49 -123t119 -43q45 0 87 15.5t79 41t67.5 57.5t55.5 66l127 -100 q-39 -63 -91.5 -112.5t-113 -83t-127 -51t-131.5 -17.5q-63 0 -122.5 18.5t-105 57t-72 98t-26.5 141.5zM535 778l53 258h188l-55 -258h-186z" />
<glyph unicode="&#xc0;" horiz-adv-x="1329" d="M-102 0l850 1454h202l234 -1454h-242l-57 395h-523l-223 -395h-241zM438 565h439l-82 625zM680 1878h213l61 -225l-155 -39z" />
<glyph unicode="&#xc1;" horiz-adv-x="1329" d="M-102 0l850 1454h202l234 -1454h-242l-57 395h-523l-223 -395h-241zM438 565h439l-82 625zM754 1651l155 225h215l-227 -262z" />
<glyph unicode="&#xc2;" horiz-adv-x="1329" d="M-102 0l850 1454h202l234 -1454h-242l-57 395h-523l-223 -395h-241zM438 565h439l-82 625zM614 1681l244 195h164l160 -195l-131 -57l-138 129l-192 -129z" />
<glyph unicode="&#xc3;" horiz-adv-x="1329" d="M-102 0l850 1454h202l234 -1454h-242l-57 395h-523l-223 -395h-241zM438 565h439l-82 625zM530 1630q4 16 22.5 55t52.5 79t81 71t109 31q43 0 71.5 -14.5t53 -31t49 -30.5t59.5 -14q37 0 60.5 14t39 32.5t22.5 34t7 19.5h127q-4 -12 -22.5 -51t-53 -80t-84.5 -73 t-116 -32q-43 0 -74 13.5t-55.5 31t-49 31t-57.5 13.5t-54.5 -14.5t-34.5 -32t-18.5 -34t-5.5 -18.5h-129z" />
<glyph unicode="&#xc4;" horiz-adv-x="1329" d="M-102 0l850 1454h202l234 -1454h-242l-57 395h-523l-223 -395h-241zM438 565h439l-82 625zM596 1642l49 226h186l-47 -226h-188zM948 1642l47 226h187l-47 -226h-187z" />
<glyph unicode="&#xc5;" horiz-adv-x="1329" d="M-102 0l850 1454h202l234 -1454h-242l-57 395h-523l-223 -395h-241zM438 565h439l-82 625zM721 1698q0 82 61.5 130t151.5 48q72 0 109.5 -32t37.5 -89q0 -80 -59 -129t-152 -49q-70 0 -109.5 33t-39.5 88zM823 1714q0 -27 17.5 -45t46.5 -18q35 0 65.5 25.5t30.5 64.5 q0 29 -18 45t-47 16q-37 0 -66 -24.5t-29 -63.5z" />
<glyph unicode="&#xc6;" horiz-adv-x="1896" d="M-164 0l1178 1454h973l-45 -203h-680l-86 -409h575l-43 -203h-575l-95 -436h699l-43 -203h-928l86 395h-461l-307 -395h-248zM535 600h342l127 590z" />
<glyph unicode="&#xc7;" horiz-adv-x="1335" d="M78 604q0 150 63.5 302.5t176 276.5t267 201.5t337.5 77.5q188 0 304.5 -88t153.5 -229l-204 -121q-14 66 -45 111t-73 71.5t-91 37.5t-99 11q-125 0 -227 -59t-175 -152.5t-113 -206t-40 -219.5q0 -86 22.5 -162.5t65.5 -135t105.5 -92t142.5 -33.5q49 0 105.5 13 t111 43t104.5 75t91 108l168 -108q-47 -76 -114.5 -136.5t-145.5 -102.5t-163 -66.5t-165 -30.5l-68 -82q16 4 34 6t32 2q59 0 97 -26.5t38 -82.5q0 -84 -68.5 -139t-205.5 -55q-61 0 -110.5 12.5t-84.5 28.5l68 88q20 -14 65 -27.5t97 -13.5q59 0 94 19.5t35 64.5 q0 31 -25 43t-64 12q-41 0 -88 -8t-73 -16l125 176q-111 12 -197 67.5t-144.5 139.5t-89 189.5t-30.5 215.5z" />
<glyph unicode="&#xc8;" horiz-adv-x="1185" d="M31 0l309 1454h932l-43 -203h-701l-88 -413h607l-39 -191h-609l-94 -444h719l-43 -203h-950zM692 1878h213l62 -225l-156 -39z" />
<glyph unicode="&#xc9;" horiz-adv-x="1185" d="M31 0l309 1454h932l-43 -203h-701l-88 -413h607l-39 -191h-609l-94 -444h719l-43 -203h-950zM741 1651l156 225h215l-227 -262z" />
<glyph unicode="&#xca;" horiz-adv-x="1185" d="M31 0l309 1454h932l-43 -203h-701l-88 -413h607l-39 -191h-609l-94 -444h719l-43 -203h-950zM584 1681l243 195h164l160 -195l-131 -57l-137 129l-193 -129z" />
<glyph unicode="&#xcb;" horiz-adv-x="1185" d="M31 0l309 1454h932l-43 -203h-701l-88 -413h607l-39 -191h-609l-94 -444h719l-43 -203h-950zM578 1642l49 226h186l-47 -226h-188zM930 1642l47 226h186l-47 -226h-186z" />
<glyph unicode="&#xcc;" horiz-adv-x="555" d="M31 0l309 1452h231l-309 -1452h-231zM332 1878h213l61 -225l-155 -39z" />
<glyph unicode="&#xcd;" horiz-adv-x="555" d="M31 0l309 1452h231l-309 -1452h-231zM352 1651l156 225h215l-227 -262z" />
<glyph unicode="&#xce;" horiz-adv-x="555" d="M31 0l309 1452h231l-309 -1452h-231zM217 1681l244 195h164l159 -195l-131 -57l-137 129l-192 -129z" />
<glyph unicode="&#xcf;" horiz-adv-x="555" d="M31 0l309 1452h231l-309 -1452h-231zM225 1642l49 226h187l-47 -226h-189zM578 1642l47 226h186l-47 -226h-186z" />
<glyph unicode="&#xd0;" horiz-adv-x="1429" d="M43 0l137 645h-100l37 172h100l135 637h494q139 0 241.5 -43t169 -118.5t99.5 -178t33 -221.5q0 -193 -64.5 -356.5t-178.5 -282.5t-270.5 -186.5t-338.5 -67.5h-494zM317 203h263q131 0 236.5 53t180 144.5t114.5 210t40 247.5q0 86 -22.5 157.5t-65.5 124t-108.5 82 t-151.5 29.5h-262l-92 -434h286l-35 -172h-288z" />
<glyph unicode="&#xd1;" horiz-adv-x="1507" d="M31 0l309 1454h180l551 -1048l221 1046h232l-310 -1452h-188l-547 1024l-217 -1024h-231zM618 1630q4 16 22.5 55t52.5 79t81 71t109 31q43 0 71.5 -14.5t53 -31t49 -30.5t59.5 -14q37 0 60.5 14t39 32.5t22.5 34t7 19.5h127q-4 -12 -22.5 -51t-53 -80t-84.5 -73 t-116 -32q-43 0 -74 13.5t-55.5 31t-49 31t-57.5 13.5t-54.5 -14.5t-34.5 -32t-18 -34t-5 -18.5h-130z" />
<glyph unicode="&#xd2;" horiz-adv-x="1484" d="M84 592q0 166 70.5 322.5t187.5 279.5t268.5 196.5t315.5 73.5q127 0 224 -51t162.5 -135t99.5 -193.5t34 -226.5q0 -164 -69.5 -320.5t-185.5 -278.5t-267.5 -195.5t-315.5 -73.5q-127 0 -224 50t-163.5 133t-101.5 191.5t-35 227.5zM319 610q0 -84 21.5 -158.5 t62.5 -131t103.5 -90t146.5 -33.5q119 0 221.5 58t177 151.5t116.5 208t42 227.5q0 82 -21.5 157.5t-63.5 132t-103 90t-143 33.5q-121 0 -222.5 -58t-177.5 -150.5t-118 -208t-42 -228.5zM836 1878h213l61 -225l-156 -39z" />
<glyph unicode="&#xd3;" horiz-adv-x="1484" d="M84 592q0 166 70.5 322.5t187.5 279.5t268.5 196.5t315.5 73.5q127 0 224 -51t162.5 -135t99.5 -193.5t34 -226.5q0 -164 -69.5 -320.5t-185.5 -278.5t-267.5 -195.5t-315.5 -73.5q-127 0 -224 50t-163.5 133t-101.5 191.5t-35 227.5zM319 610q0 -84 21.5 -158.5 t62.5 -131t103.5 -90t146.5 -33.5q119 0 221.5 58t177 151.5t116.5 208t42 227.5q0 82 -21.5 157.5t-63.5 132t-103 90t-143 33.5q-121 0 -222.5 -58t-177.5 -150.5t-118 -208t-42 -228.5zM848 1651l156 225h215l-228 -262z" />
<glyph unicode="&#xd4;" horiz-adv-x="1484" d="M84 592q0 166 70.5 322.5t187.5 279.5t268.5 196.5t315.5 73.5q127 0 224 -51t162.5 -135t99.5 -193.5t34 -226.5q0 -164 -69.5 -320.5t-185.5 -278.5t-267.5 -195.5t-315.5 -73.5q-127 0 -224 50t-163.5 133t-101.5 191.5t-35 227.5zM319 610q0 -84 21.5 -158.5 t62.5 -131t103.5 -90t146.5 -33.5q119 0 221.5 58t177 151.5t116.5 208t42 227.5q0 82 -21.5 157.5t-63.5 132t-103 90t-143 33.5q-121 0 -222.5 -58t-177.5 -150.5t-118 -208t-42 -228.5zM698 1681l244 195h164l160 -195l-131 -57l-138 129l-192 -129z" />
<glyph unicode="&#xd5;" horiz-adv-x="1484" d="M84 592q0 166 70.5 322.5t187.5 279.5t268.5 196.5t315.5 73.5q127 0 224 -51t162.5 -135t99.5 -193.5t34 -226.5q0 -164 -69.5 -320.5t-185.5 -278.5t-267.5 -195.5t-315.5 -73.5q-127 0 -224 50t-163.5 133t-101.5 191.5t-35 227.5zM319 610q0 -84 21.5 -158.5 t62.5 -131t103.5 -90t146.5 -33.5q119 0 221.5 58t177 151.5t116.5 208t42 227.5q0 82 -21.5 157.5t-63.5 132t-103 90t-143 33.5q-121 0 -222.5 -58t-177.5 -150.5t-118 -208t-42 -228.5zM614 1630q4 16 22.5 55t52.5 79t81 71t109 31q43 0 71.5 -14.5t53 -31t49 -30.5 t59.5 -14q37 0 60.5 14t39 32.5t22.5 34t7 19.5h127q-4 -12 -22.5 -51t-53.5 -80t-84.5 -73t-115.5 -32q-43 0 -74 13.5t-55.5 31t-49 31t-57.5 13.5t-54.5 -14.5t-34.5 -32t-18.5 -34t-5.5 -18.5h-129z" />
<glyph unicode="&#xd6;" horiz-adv-x="1484" d="M84 592q0 166 70.5 322.5t187.5 279.5t268.5 196.5t315.5 73.5q127 0 224 -51t162.5 -135t99.5 -193.5t34 -226.5q0 -164 -69.5 -320.5t-185.5 -278.5t-267.5 -195.5t-315.5 -73.5q-127 0 -224 50t-163.5 133t-101.5 191.5t-35 227.5zM319 610q0 -84 21.5 -158.5 t62.5 -131t103.5 -90t146.5 -33.5q119 0 221.5 58t177 151.5t116.5 208t42 227.5q0 82 -21.5 157.5t-63.5 132t-103 90t-143 33.5q-121 0 -222.5 -58t-177.5 -150.5t-118 -208t-42 -228.5zM694 1642l49 226h187l-47 -226h-189zM1047 1642l47 226h186l-47 -226h-186z" />
<glyph unicode="&#xd7;" horiz-adv-x="980" d="M109 338l223 223l-217 219l143 140l217 -218l217 220l142 -142l-218 -219l226 -225l-144 -139l-225 223l-223 -223z" />
<glyph unicode="&#xd8;" horiz-adv-x="1484" d="M16 0l179 205q-55 80 -83 179t-28 208q0 166 70.5 322.5t187.5 279.5t268.5 196.5t315.5 73.5q84 0 154.5 -23.5t127.5 -64.5l68 78h250l-187 -215q53 -82 80 -179t27 -202q0 -164 -69.5 -320.5t-185.5 -278.5t-267.5 -195.5t-315.5 -73.5q-84 0 -153.5 21.5t-126.5 60.5 l-62 -72h-250zM319 610q0 -59 9.5 -113.5t29.5 -101.5l699 805q-78 55 -178 55q-121 0 -222.5 -58t-177.5 -150.5t-118 -208t-42 -228.5zM479 246q35 -23 78 -36t96 -13q119 0 221.5 58t177 151.5t116.5 208t42 227.5q0 55 -10 106t-29 99z" />
<glyph unicode="&#xd9;" horiz-adv-x="1476" d="M135 477q0 113 29 240l155 737h232l-158 -737q-23 -109 -22 -199q0 -68 14 -127t47 -102t86 -67.5t131 -24.5q106 0 186 45t138.5 117.5t96.5 165.5t58 192l156 737h232l-158 -737q-31 -150 -92.5 -282t-154.5 -231.5t-219 -156.5t-286 -57q-129 0 -219 38t-145.5 103.5 t-81 154.5t-25.5 191zM799 1878h213l61 -225l-155 -39z" />
<glyph unicode="&#xda;" horiz-adv-x="1476" d="M135 477q0 113 29 240l155 737h232l-158 -737q-23 -109 -22 -199q0 -68 14 -127t47 -102t86 -67.5t131 -24.5q106 0 186 45t138.5 117.5t96.5 165.5t58 192l156 737h232l-158 -737q-31 -150 -92.5 -282t-154.5 -231.5t-219 -156.5t-286 -57q-129 0 -219 38t-145.5 103.5 t-81 154.5t-25.5 191zM823 1651l156 225h215l-227 -262z" />
<glyph unicode="&#xdb;" horiz-adv-x="1476" d="M135 477q0 113 29 240l155 737h232l-158 -737q-23 -109 -22 -199q0 -68 14 -127t47 -102t86 -67.5t131 -24.5q106 0 186 45t138.5 117.5t96.5 165.5t58 192l156 737h232l-158 -737q-31 -150 -92.5 -282t-154.5 -231.5t-219 -156.5t-286 -57q-129 0 -219 38t-145.5 103.5 t-81 154.5t-25.5 191zM670 1681l243 195h164l160 -195l-131 -57l-137 129l-193 -129z" />
<glyph unicode="&#xdc;" horiz-adv-x="1476" d="M135 477q0 113 29 240l155 737h232l-158 -737q-23 -109 -22 -199q0 -68 14 -127t47 -102t86 -67.5t131 -24.5q106 0 186 45t138.5 117.5t96.5 165.5t58 192l156 737h232l-158 -737q-31 -150 -92.5 -282t-154.5 -231.5t-219 -156.5t-286 -57q-129 0 -219 38t-145.5 103.5 t-81 154.5t-25.5 191zM674 1642l49 226h186l-47 -226h-188zM1026 1642l47 226h187l-48 -226h-186z" />
<glyph unicode="&#xdd;" d="M174 1454h252l217 -729l533 729h249l-710 -934l-111 -520h-231l112 524zM702 1651l156 225h215l-227 -262z" />
<glyph unicode="&#xde;" horiz-adv-x="1191" d="M31 0l309 1454h231l-57 -272h315q80 0 143.5 -33t107.5 -88t67.5 -126t23.5 -144q0 -102 -43 -202t-115.5 -178.5t-168.5 -128t-205 -49.5h-328l-49 -233h-231zM354 438h318q53 0 101 29t84 75t57.5 104.5t21.5 119.5q0 92 -45 152.5t-117 60.5h-305z" />
<glyph unicode="&#xdf;" horiz-adv-x="1095" d="M0 0l227 1065q18 86 65.5 159.5t115 126t150.5 82t175 29.5q141 0 227.5 -73.5t86.5 -200.5q0 -61 -23 -120.5t-58.5 -109t-81.5 -85t-91 -50.5q102 -27 153 -111.5t51 -197.5q0 -133 -53 -230.5t-142 -162t-207 -97t-247 -36.5l45 207q78 2 145.5 20t118 57t79 96.5 t28.5 135.5q0 96 -55.5 149.5t-145.5 53.5h-41l43 204h39q47 0 87 17.5t68.5 47.5t45 69.5t16.5 87.5q0 70 -43 103.5t-102 33.5q-49 0 -90 -19.5t-71 -53.5t-50.5 -78t-30.5 -93l-219 -1026h-215z" />
<glyph unicode="&#xe0;" d="M39 422q0 131 48 252t130 213t188.5 147.5t223.5 55.5t195.5 -62.5t111.5 -159.5l43 201h227l-172 -803q-2 -10 -3 -17t-1 -13q0 -41 47 -43l-41 -193q-29 -4 -52 -7t-40 -3q-133 0 -133 106q0 33 14 99q-78 -104 -188.5 -159.5t-216.5 -55.5q-90 0 -161 34.5t-120 94 t-74.5 140.5t-25.5 173zM276 459q0 -61 16.5 -113.5t48.5 -90.5t77 -60.5t100 -22.5q41 0 87 16.5t90 45t81 67.5t60 84l57 281q-6 49 -27.5 91t-54.5 73.5t-72 49t-82 17.5q-78 0 -146.5 -39t-120.5 -100.5t-83 -140t-31 -158.5zM512 1495h213l61 -225l-155 -39z" />
<glyph unicode="&#xe1;" d="M39 422q0 131 48 252t130 213t188.5 147.5t223.5 55.5t195.5 -62.5t111.5 -159.5l43 201h227l-172 -803q-2 -10 -3 -17t-1 -13q0 -41 47 -43l-41 -193q-29 -4 -52 -7t-40 -3q-133 0 -133 106q0 33 14 99q-78 -104 -188.5 -159.5t-216.5 -55.5q-90 0 -161 34.5t-120 94 t-74.5 140.5t-25.5 173zM276 459q0 -61 16.5 -113.5t48.5 -90.5t77 -60.5t100 -22.5q41 0 87 16.5t90 45t81 67.5t60 84l57 281q-6 49 -27.5 91t-54.5 73.5t-72 49t-82 17.5q-78 0 -146.5 -39t-120.5 -100.5t-83 -140t-31 -158.5zM590 1270l155 225h216l-228 -262z" />
<glyph unicode="&#xe2;" d="M39 422q0 131 48 252t130 213t188.5 147.5t223.5 55.5t195.5 -62.5t111.5 -159.5l43 201h227l-172 -803q-2 -10 -3 -17t-1 -13q0 -41 47 -43l-41 -193q-29 -4 -52 -7t-40 -3q-133 0 -133 106q0 33 14 99q-78 -104 -188.5 -159.5t-216.5 -55.5q-90 0 -161 34.5t-120 94 t-74.5 140.5t-25.5 173zM276 459q0 -61 16.5 -113.5t48.5 -90.5t77 -60.5t100 -22.5q41 0 87 16.5t90 45t81 67.5t60 84l57 281q-6 49 -27.5 91t-54.5 73.5t-72 49t-82 17.5q-78 0 -146.5 -39t-120.5 -100.5t-83 -140t-31 -158.5zM426 1300l244 195h164l159 -195l-131 -57 l-137 129l-193 -129z" />
<glyph unicode="&#xe3;" d="M39 422q0 131 48 252t130 213t188.5 147.5t223.5 55.5t195.5 -62.5t111.5 -159.5l43 201h227l-172 -803q-2 -10 -3 -17t-1 -13q0 -41 47 -43l-41 -193q-29 -4 -52 -7t-40 -3q-133 0 -133 106q0 33 14 99q-78 -104 -188.5 -159.5t-216.5 -55.5q-90 0 -161 34.5t-120 94 t-74.5 140.5t-25.5 173zM276 459q0 -61 16.5 -113.5t48.5 -90.5t77 -60.5t100 -22.5q41 0 87 16.5t90 45t81 67.5t60 84l57 281q-6 49 -27.5 91t-54.5 73.5t-72 49t-82 17.5q-78 0 -146.5 -39t-120.5 -100.5t-83 -140t-31 -158.5zM338 1249q4 16 22.5 55t52 79t81 71 t108.5 31q43 0 71.5 -14.5t53.5 -31t49.5 -30.5t59.5 -14q37 0 60.5 14t38.5 32.5t22.5 34t7.5 19.5h127q-4 -12 -22.5 -51t-53.5 -80t-85 -72.5t-116 -31.5q-43 0 -73.5 13t-55 30.5t-49.5 31t-57 13.5q-33 0 -54.5 -14.5t-35 -32t-18.5 -34t-5 -18.5h-129z" />
<glyph unicode="&#xe4;" d="M39 422q0 131 48 252t130 213t188.5 147.5t223.5 55.5t195.5 -62.5t111.5 -159.5l43 201h227l-172 -803q-2 -10 -3 -17t-1 -13q0 -41 47 -43l-41 -193q-29 -4 -52 -7t-40 -3q-133 0 -133 106q0 33 14 99q-78 -104 -188.5 -159.5t-216.5 -55.5q-90 0 -161 34.5t-120 94 t-74.5 140.5t-25.5 173zM276 459q0 -61 16.5 -113.5t48.5 -90.5t77 -60.5t100 -22.5q41 0 87 16.5t90 45t81 67.5t60 84l57 281q-6 49 -27.5 91t-54.5 73.5t-72 49t-82 17.5q-78 0 -146.5 -39t-120.5 -100.5t-83 -140t-31 -158.5zM432 1260l49 225h187l-47 -225h-189z M784 1260l47 225h187l-47 -225h-187z" />
<glyph unicode="&#xe5;" d="M39 422q0 131 48 252t130 213t188.5 147.5t223.5 55.5t195.5 -62.5t111.5 -159.5l43 201h227l-172 -803q-2 -10 -3 -17t-1 -13q0 -41 47 -43l-41 -193q-29 -4 -52 -7t-40 -3q-133 0 -133 106q0 33 14 99q-78 -104 -188.5 -159.5t-216.5 -55.5q-90 0 -161 34.5t-120 94 t-74.5 140.5t-25.5 173zM276 459q0 -61 16.5 -113.5t48.5 -90.5t77 -60.5t100 -22.5q41 0 87 16.5t90 45t81 67.5t60 84l57 281q-6 49 -27.5 91t-54.5 73.5t-72 49t-82 17.5q-78 0 -146.5 -39t-120.5 -100.5t-83 -140t-31 -158.5zM532 1317q0 82 61.5 130t151.5 48 q72 0 110 -31.5t38 -89.5q0 -80 -59.5 -129t-151.5 -49q-70 0 -110 33t-40 88zM635 1333q0 -27 17.5 -45t45.5 -18q35 0 66 25.5t31 64.5q0 29 -18.5 45t-47.5 16q-37 0 -65.5 -24.5t-28.5 -63.5z" />
<glyph unicode="&#xe6;" horiz-adv-x="1824" d="M-16 256q0 86 39.5 159.5t108.5 126t162 82t200 29.5q66 0 125 -10t106 -31q12 47 28.5 82t16.5 76q0 70 -50 115t-149 45q-80 0 -163.5 -32t-182.5 -91l-39 143q229 139 443 140q123 0 201.5 -45.5t113.5 -129.5q82 78 186.5 126.5t223.5 48.5q102 0 180 -35t131 -96.5 t81 -143.5t28 -174q0 -74 -13.5 -118t-21.5 -62h-821q-6 -29 -7 -55q0 -119 71 -190t179 -71q43 0 86 11.5t82 33t72 52t55 67.5l182 -55q-39 -59 -94 -109.5t-122.5 -87.5t-144.5 -57t-157 -20q-143 0 -240.5 61t-144.5 166q-47 -61 -107.5 -104.5t-124 -71t-124 -39.5 t-109.5 -12q-135 0 -210.5 78.5t-75.5 197.5zM205 301q0 -66 41 -111t123 -45q43 0 93 14.5t96 38t83 55.5t53 66q-6 25 -6 60q0 27 3 55.5t7 52.5q-43 16 -95 26.5t-99 10.5q-63 0 -118.5 -16t-95.5 -46t-62.5 -71t-22.5 -90zM942 604h604q6 31 6 60q0 117 -64.5 188.5 t-174.5 71.5q-61 0 -119.5 -23.5t-108 -66.5t-86 -101.5t-57.5 -128.5z" />
<glyph unicode="&#xe7;" horiz-adv-x="1097" d="M39 430q0 129 50 248t139 210t209 146.5t261 55.5q160 0 258.5 -73t130.5 -194l-233 -69q-23 68 -75 105.5t-126 37.5t-142.5 -34t-121.5 -94t-85 -140t-32 -172q0 -61 16.5 -113.5t47.5 -90.5t73 -59.5t93 -21.5q39 0 77.5 11.5t74.5 32t65 47t47 56.5l207 -65 q-72 -113 -195 -187.5t-272 -84.5l-62 -74q16 4 34 6t32 2q59 0 97 -26.5t38 -82.5q0 -84 -68.5 -139t-205.5 -55q-61 0 -110.5 12.5t-84.5 28.5l68 88q20 -14 65 -27.5t97 -13.5q59 0 94 19.5t35 64.5q0 31 -25 43t-64 12q-41 0 -88 -8t-73 -16l118 168q-88 10 -156.5 49 t-114.5 98t-69.5 136t-23.5 163z" />
<glyph unicode="&#xe8;" horiz-adv-x="1116" d="M41 432q0 131 50 250t139 209t211 144.5t264 54.5q166 0 265 -75t99 -220q0 -336 -600 -336q-88 0 -199 6v-37q0 -59 14.5 -110.5t43 -90.5t73.5 -60.5t107 -21.5q88 0 170 44t129 120l178 -55q-39 -61 -95 -111.5t-124 -86.5t-143.5 -56t-153.5 -20q-102 0 -181 34.5 t-134.5 95t-84 143.5t-28.5 179zM299 612q94 -6 174 -6q109 0 182.5 13.5t119.5 37t65.5 57.5t19.5 74q0 70 -49 103t-135 33q-74 0 -135.5 -26t-108.5 -69t-80 -99t-53 -118zM565 1495h213l62 -225l-156 -39z" />
<glyph unicode="&#xe9;" horiz-adv-x="1116" d="M41 432q0 131 50 250t139 209t211 144.5t264 54.5q166 0 265 -75t99 -220q0 -336 -600 -336q-88 0 -199 6v-37q0 -59 14.5 -110.5t43 -90.5t73.5 -60.5t107 -21.5q88 0 170 44t129 120l178 -55q-39 -61 -95 -111.5t-124 -86.5t-143.5 -56t-153.5 -20q-102 0 -181 34.5 t-134.5 95t-84 143.5t-28.5 179zM299 612q94 -6 174 -6q109 0 182.5 13.5t119.5 37t65.5 57.5t19.5 74q0 70 -49 103t-135 33q-74 0 -135.5 -26t-108.5 -69t-80 -99t-53 -118zM588 1270l155 225h215l-227 -262z" />
<glyph unicode="&#xea;" horiz-adv-x="1116" d="M41 432q0 131 50 250t139 209t211 144.5t264 54.5q166 0 265 -75t99 -220q0 -336 -600 -336q-88 0 -199 6v-37q0 -59 14.5 -110.5t43 -90.5t73.5 -60.5t107 -21.5q88 0 170 44t129 120l178 -55q-39 -61 -95 -111.5t-124 -86.5t-143.5 -56t-153.5 -20q-102 0 -181 34.5 t-134.5 95t-84 143.5t-28.5 179zM299 612q94 -6 174 -6q109 0 182.5 13.5t119.5 37t65.5 57.5t19.5 74q0 70 -49 103t-135 33q-74 0 -135.5 -26t-108.5 -69t-80 -99t-53 -118zM465 1300l244 195h163l160 -195l-131 -57l-137 129l-193 -129z" />
<glyph unicode="&#xeb;" horiz-adv-x="1116" d="M41 432q0 131 50 250t139 209t211 144.5t264 54.5q166 0 265 -75t99 -220q0 -336 -600 -336q-88 0 -199 6v-37q0 -59 14.5 -110.5t43 -90.5t73.5 -60.5t107 -21.5q88 0 170 44t129 120l178 -55q-39 -61 -95 -111.5t-124 -86.5t-143.5 -56t-153.5 -20q-102 0 -181 34.5 t-134.5 95t-84 143.5t-28.5 179zM299 612q94 -6 174 -6q109 0 182.5 13.5t119.5 37t65.5 57.5t19.5 74q0 70 -49 103t-135 33q-74 0 -135.5 -26t-108.5 -69t-80 -99t-53 -118zM457 1260l49 225h186l-47 -225h-188zM809 1260l47 225h186l-47 -225h-186z" />
<glyph unicode="&#xec;" horiz-adv-x="489" d="M0 0l229 1071h226l-230 -1071h-225zM201 1495h213l61 -225l-156 -39z" />
<glyph unicode="&#xed;" horiz-adv-x="489" d="M0 0l229 1071h226l-230 -1071h-225zM258 1270l156 225h215l-228 -262z" />
<glyph unicode="&#xee;" horiz-adv-x="489" d="M0 0l229 1071h226l-230 -1071h-225zM115 1300l243 195h164l160 -195l-131 -57l-137 129l-193 -129z" />
<glyph unicode="&#xef;" horiz-adv-x="489" d="M0 0l229 1071h226l-230 -1071h-225zM104 1260l50 225h186l-47 -225h-189zM457 1260l47 225h186l-47 -225h-186z" />
<glyph unicode="&#xf0;" horiz-adv-x="1202" d="M31 391q0 115 50 219.5t132 184t187.5 127t217.5 47.5q111 0 192 -52.5t116 -138.5q0 35 -2 68t-9 63q-10 74 -34.5 144.5t-67.5 140.5l-209 -115l-47 92l195 105q-92 113 -252 219h297q86 -59 145 -135l182 100l47 -92l-170 -90q74 -119 107 -254t33 -258 q0 -180 -57.5 -325.5t-152.5 -248t-219 -157.5t-259 -55q-94 0 -172 31.5t-133.5 87t-86 130t-30.5 162.5zM264 420q0 -53 17.5 -98.5t48 -78t73.5 -52t97 -19.5q74 0 140.5 30.5t117.5 82t81.5 118t30.5 140.5q0 104 -63.5 173.5t-171.5 69.5q-72 0 -139.5 -29.5 t-118.5 -79.5t-82 -116.5t-31 -140.5z" />
<glyph unicode="&#xf1;" horiz-adv-x="1175" d="M0 0l229 1071h203l-45 -215q80 109 203 171.5t258 62.5q68 0 113 -18.5t72.5 -52.5t39.5 -79t12 -100q0 -43 -7 -90.5t-17 -96.5l-137 -653h-226l127 600q8 39 12.5 70.5t4.5 60.5q0 158 -131 158q-45 0 -94.5 -18.5t-96.5 -52.5t-89 -80t-69 -101l-137 -637h-225z M332 1249q4 16 22.5 55t52 79t81 71t108.5 31q43 0 71.5 -14.5t53 -31t49.5 -30.5t59 -14q37 0 60.5 14t39 32.5t22.5 34t7 19.5h127q-4 -12 -22.5 -51t-53 -80t-84.5 -72.5t-116 -31.5q-43 0 -73.5 13t-55.5 30.5t-49.5 31t-57.5 13.5t-54 -14.5t-34.5 -32t-18.5 -34 t-5 -18.5h-129z" />
<glyph unicode="&#xf2;" horiz-adv-x="1191" d="M39 426q0 129 51 249t139 212t208 147.5t257 55.5q102 0 181 -36t133.5 -96.5t82 -142.5t27.5 -174q0 -127 -51 -246t-140 -211t-209 -148t-259 -56q-102 0 -180 35.5t-131.5 96t-81 141.5t-27.5 173zM272 455q0 -123 63 -203t167 -80q72 0 140.5 35t121.5 95t86 140 t33 170q0 123 -62.5 204t-167.5 81q-72 0 -139.5 -36t-121.5 -96t-87 -140t-33 -170zM563 1495h213l62 -225l-156 -39z" />
<glyph unicode="&#xf3;" horiz-adv-x="1191" d="M39 426q0 129 51 249t139 212t208 147.5t257 55.5q102 0 181 -36t133.5 -96.5t82 -142.5t27.5 -174q0 -127 -51 -246t-140 -211t-209 -148t-259 -56q-102 0 -180 35.5t-131.5 96t-81 141.5t-27.5 173zM272 455q0 -123 63 -203t167 -80q72 0 140.5 35t121.5 95t86 140 t33 170q0 123 -62.5 204t-167.5 81q-72 0 -139.5 -36t-121.5 -96t-87 -140t-33 -170zM600 1270l156 225h215l-228 -262z" />
<glyph unicode="&#xf4;" horiz-adv-x="1191" d="M39 426q0 129 51 249t139 212t208 147.5t257 55.5q102 0 181 -36t133.5 -96.5t82 -142.5t27.5 -174q0 -127 -51 -246t-140 -211t-209 -148t-259 -56q-102 0 -180 35.5t-131.5 96t-81 141.5t-27.5 173zM272 455q0 -123 63 -203t167 -80q72 0 140.5 35t121.5 95t86 140 t33 170q0 123 -62.5 204t-167.5 81q-72 0 -139.5 -36t-121.5 -96t-87 -140t-33 -170zM457 1300l243 195h164l160 -195l-131 -57l-137 129l-193 -129z" />
<glyph unicode="&#xf5;" horiz-adv-x="1191" d="M39 426q0 129 51 249t139 212t208 147.5t257 55.5q102 0 181 -36t133.5 -96.5t82 -142.5t27.5 -174q0 -127 -51 -246t-140 -211t-209 -148t-259 -56q-102 0 -180 35.5t-131.5 96t-81 141.5t-27.5 173zM272 455q0 -123 63 -203t167 -80q72 0 140.5 35t121.5 95t86 140 t33 170q0 123 -62.5 204t-167.5 81q-72 0 -139.5 -36t-121.5 -96t-87 -140t-33 -170zM369 1249q4 16 22.5 55t52 79t80.5 71t109 31q43 0 71.5 -14.5t53 -31t49 -30.5t59.5 -14q37 0 60.5 14t39 32.5t22.5 34t7 19.5h127q-4 -12 -22.5 -51t-53 -80t-84.5 -72.5t-116 -31.5 q-43 0 -74 13t-55.5 30.5t-49 31t-57.5 13.5t-54 -14.5t-34.5 -32t-18.5 -34t-5 -18.5h-129z" />
<glyph unicode="&#xf6;" horiz-adv-x="1191" d="M39 426q0 129 51 249t139 212t208 147.5t257 55.5q102 0 181 -36t133.5 -96.5t82 -142.5t27.5 -174q0 -127 -51 -246t-140 -211t-209 -148t-259 -56q-102 0 -180 35.5t-131.5 96t-81 141.5t-27.5 173zM272 455q0 -123 63 -203t167 -80q72 0 140.5 35t121.5 95t86 140 t33 170q0 123 -62.5 204t-167.5 81q-72 0 -139.5 -36t-121.5 -96t-87 -140t-33 -170zM465 1260l49 225h186l-47 -225h-188zM817 1260l47 225h187l-47 -225h-187z" />
<glyph unicode="&#xf7;" horiz-adv-x="1079" d="M121 508v180h825v-180h-825zM438 119v233h193v-233h-193zM438 842v235h193v-235h-193z" />
<glyph unicode="&#xf8;" horiz-adv-x="1191" d="M-2 -6l137 133q-47 59 -71.5 136t-24.5 163q0 129 51 249t140 212t209 147.5t257 55.5q78 0 141.5 -21.5t114.5 -58.5l68 67h133l-135 -131q49 -59 74.5 -138t25.5 -167q0 -127 -50 -246t-139 -211t-209 -148t-259 -56q-80 0 -145.5 21.5t-116.5 61.5l-70 -69h-131z M272 455q0 -90 35 -160l488 547q-59 55 -142 55q-72 0 -139.5 -36t-121.5 -96t-87 -140t-33 -170zM356 227q60 -55 146 -55q72 0 140.5 35t122.5 95t87 140t33 170q0 47 -10.5 87t-26.5 75z" />
<glyph unicode="&#xf9;" horiz-adv-x="1200" d="M57 246q0 76 21 170l141 655h223l-131 -610q-14 -66 -14 -123q0 -166 141 -166q90 0 181.5 59.5t160.5 171.5l142 668h225l-170 -805q-6 -18 -6 -30q0 -39 47 -43l-39 -193q-31 -4 -53.5 -7t-40.5 -3q-61 0 -96 25.5t-35 76.5q0 16 4 43t14 82q-92 -117 -213 -177 t-252 -60q-250 0 -250 266zM543 1495h213l61 -225l-155 -39z" />
<glyph unicode="&#xfa;" horiz-adv-x="1200" d="M57 246q0 76 21 170l141 655h223l-131 -610q-14 -66 -14 -123q0 -166 141 -166q90 0 181.5 59.5t160.5 171.5l142 668h225l-170 -805q-6 -18 -6 -30q0 -39 47 -43l-39 -193q-31 -4 -53.5 -7t-40.5 -3q-61 0 -96 25.5t-35 76.5q0 16 4 43t14 82q-92 -117 -213 -177 t-252 -60q-250 0 -250 266zM565 1270l156 225h215l-227 -262z" />
<glyph unicode="&#xfb;" horiz-adv-x="1200" d="M57 246q0 76 21 170l141 655h223l-131 -610q-14 -66 -14 -123q0 -166 141 -166q90 0 181.5 59.5t160.5 171.5l142 668h225l-170 -805q-6 -18 -6 -30q0 -39 47 -43l-39 -193q-31 -4 -53.5 -7t-40.5 -3q-61 0 -96 25.5t-35 76.5q0 16 4 43t14 82q-92 -117 -213 -177 t-252 -60q-250 0 -250 266zM455 1300l243 195h164l160 -195l-131 -57l-137 129l-193 -129z" />
<glyph unicode="&#xfc;" horiz-adv-x="1200" d="M57 246q0 76 21 170l141 655h223l-131 -610q-14 -66 -14 -123q0 -166 141 -166q90 0 181.5 59.5t160.5 171.5l142 668h225l-170 -805q-6 -18 -6 -30q0 -39 47 -43l-39 -193q-31 -4 -53.5 -7t-40.5 -3q-61 0 -96 25.5t-35 76.5q0 16 4 43t14 82q-92 -117 -213 -177 t-252 -60q-250 0 -250 266zM442 1260l50 225h186l-47 -225h-189zM795 1260l47 225h186l-47 -225h-186z" />
<glyph unicode="&#xfd;" horiz-adv-x="1044" d="M-82 -287q63 6 108.5 17.5t80 31t64.5 51t62 78.5l60 86l-193 1094h232l121 -872l69 114q76 123 130.5 222.5t93 187.5t66.5 172t50 176h221q-29 -98 -59.5 -184t-77.5 -181.5t-115.5 -213t-168.5 -281.5l-164 -264q-72 -115 -135.5 -193t-128 -126t-134 -69.5 t-151.5 -21.5zM496 1270l155 225h215l-227 -262z" />
<glyph unicode="&#xfe;" horiz-adv-x="1181" d="M-92 -436l401 1890h232q-4 -16 -10.5 -46t-14.5 -67.5t-17.5 -82t-17.5 -87.5q-23 -100 -47 -219q51 59 122 102.5t173 43.5q94 0 167 -37t121 -98.5t72.5 -141.5t24.5 -164q0 -117 -46 -240.5t-130 -226t-199.5 -168t-253.5 -65.5q-111 0 -163 41t-72 92 q-27 -127 -49 -233q-10 -45 -19.5 -91.5t-17.5 -86t-15.5 -70.5t-9.5 -45h-231zM303 330q0 -31 16.5 -60.5t46 -54.5t69.5 -39t89 -14q76 0 141.5 39t113.5 101.5t75 143t27 166.5q0 57 -13.5 109.5t-40 90.5t-66.5 60.5t-91 22.5q-86 0 -160 -58.5t-131 -140.5l-72 -340 q-2 -6 -3 -11t-1 -15z" />
<glyph unicode="&#xff;" horiz-adv-x="1044" d="M-82 -287q63 6 108.5 17.5t80 31t64.5 51t62 78.5l60 86l-193 1094h232l121 -872l69 114q76 123 130.5 222.5t93 187.5t66.5 172t50 176h221q-29 -98 -59.5 -184t-77.5 -181.5t-115.5 -213t-168.5 -281.5l-164 -264q-72 -115 -135.5 -193t-128 -126t-134 -69.5 t-151.5 -21.5zM350 1260l49 225h187l-47 -225h-189zM702 1260l48 225h186l-47 -225h-187z" />
<glyph unicode="&#x131;" horiz-adv-x="489" d="M0 0l229 1071h226l-230 -1071h-225z" />
<glyph unicode="&#x152;" horiz-adv-x="2160" d="M84 590q0 166 69.5 323.5t184.5 280.5t265.5 196.5t311.5 73.5q70 0 129.5 -21.5t105.5 -59t79 -89t53 -110.5l55 270h914l-43 -203h-682l-86 -409h575l-43 -203h-575l-94 -436h698l-43 -203h-930l59 270q-47 -59 -103 -110t-118.5 -89t-130 -59.5t-137.5 -21.5 q-123 0 -219 50t-161.5 133t-99.5 191.5t-34 225.5zM319 608q0 -84 20.5 -157.5t61.5 -131t101.5 -90t140.5 -32.5q117 0 217.5 59t174 152.5t115.5 209t42 228.5q0 82 -21.5 156.5t-62.5 131t-101.5 90t-138.5 33.5q-117 0 -217 -58t-174 -152.5t-116 -210t-42 -228.5z" />
<glyph unicode="&#x153;" horiz-adv-x="1990" d="M39 424q0 137 54 258t144.5 212t209 143.5t247.5 52.5q135 0 225.5 -74t124.5 -209q98 139 218 211t260 72q98 0 175 -33t130 -92.5t81.5 -142.5t28.5 -183q0 -74 -11 -117t-21 -61h-807q-4 -14 -4 -27.5v-27.5q0 -115 66.5 -190t176.5 -75q45 0 90.5 12.5t85 35t72.5 53 t53 67.5l177 -55q-41 -61 -99.5 -112.5t-126 -87.5t-142.5 -55t-151 -19q-129 0 -221 72.5t-145 201.5q-111 -135 -226.5 -204.5t-244.5 -69.5q-96 0 -174 33.5t-132.5 93t-84 140.5t-29.5 177zM272 451q0 -59 16.5 -110.5t46.5 -88.5t72 -58.5t95 -21.5q74 0 142.5 36 t121.5 96.5t85 140t32 169.5q0 61 -16.5 112.5t-45 89.5t-71.5 59.5t-95 21.5q-74 0 -142.5 -36t-121.5 -97.5t-86 -142t-33 -170.5zM1122 604h592q2 14 3 28.5t1 29.5q0 119 -65.5 190.5t-171.5 71.5q-59 0 -116.5 -23.5t-105 -66.5t-83 -101.5t-54.5 -128.5z" />
<glyph unicode="&#x178;" d="M174 1454h252l217 -729l533 729h249l-710 -934l-111 -520h-231l112 524zM563 1642l49 226h187l-47 -226h-189zM915 1642l48 226h186l-47 -226h-187z" />
<glyph unicode="&#x192;" horiz-adv-x="1062" d="M-133 -299l131 152q20 -25 50 -36.5t63 -11.5q57 0 108 44.5t66 111.5l172 811h-135l36 174h136l30 141q20 98 60.5 177t94.5 135.5t121.5 86.5t141.5 30q61 0 120.5 -17.5t106.5 -48.5l-84 -168q-25 18 -62.5 30.5t-72.5 12.5q-150 0 -198 -231l-33 -148h258l-37 -174 h-258l-172 -805q-16 -80 -57 -145.5t-97.5 -112.5t-124 -73.5t-135.5 -26.5q-70 0 -129 22.5t-100 69.5z" />
<glyph unicode="&#x2c6;" horiz-adv-x="696" d="M106 1300l244 195h164l160 -195l-131 -57l-137 129l-193 -129z" />
<glyph unicode="&#x2c7;" horiz-adv-x="696" d="M129 1438l131 57l137 -129l193 129l106 -57l-243 -195h-164z" />
<glyph unicode="&#x2d8;" horiz-adv-x="614" d="M113 1436q0 16 2 30.5t6 28.5h125q-2 -10 -3 -18.5t-1 -18.5q0 -45 23.5 -76.5t62.5 -31.5q43 0 84 41t59 104h125q-12 -53 -40 -99t-66.5 -80t-86 -52.5t-98.5 -18.5q-88 0 -140 52.5t-52 138.5z" />
<glyph unicode="&#x2d9;" horiz-adv-x="397" d="M104 1260l52 235h200l-49 -235h-203z" />
<glyph unicode="&#x2da;" horiz-adv-x="501" d="M117 1317q0 82 61.5 130t151.5 48q72 0 109.5 -31.5t37.5 -89.5q0 -80 -59.5 -129t-151.5 -49q-70 0 -109.5 33t-39.5 88zM219 1333q0 -27 17.5 -45t46.5 -18q35 0 65.5 25.5t30.5 64.5q0 29 -18.5 45t-47.5 16q-37 0 -65.5 -24.5t-28.5 -63.5z" />
<glyph unicode="&#x2db;" horiz-adv-x="536" d="M72 -242q0 70 67.5 140.5t210.5 142.5l60 -41q-104 -59 -149.5 -105.5t-45.5 -89.5q0 -66 98 -71l-73 -119q-86 14 -127 53t-41 90z" />
<glyph unicode="&#x2dc;" horiz-adv-x="833" d="M72 1249q4 16 22.5 55t52 79t80.5 71t109 31q43 0 71.5 -14.5t53 -31t49.5 -30.5t59 -14q37 0 60.5 14t39 32.5t22.5 34t7 19.5h127q-4 -12 -22.5 -51t-53 -80t-84.5 -72.5t-116 -31.5q-43 0 -74 13t-55.5 30.5t-49 31t-57.5 13.5t-54 -14.5t-34.5 -32t-18.5 -34 t-5 -18.5h-129z" />
<glyph unicode="&#x2dd;" horiz-adv-x="690" d="M68 1270l145 225h182l-217 -260zM362 1270l144 225h182l-217 -260z" />
<glyph unicode="&#x3a9;" horiz-adv-x="1654" d="M98 0v184h353q-154 86 -243 234.5t-89 333.5q0 141 51 270t142 227.5t216 156.5t271 58q145 0 270 -58t216 -156.5t143.5 -227.5t52.5 -270q0 -184 -90.5 -333t-243.5 -235h354v-184h-610v184q82 29 148.5 87.5t112.5 135t71.5 166t25.5 179.5q0 94 -31.5 184t-90 161.5 t-141.5 115.5t-187 44t-188.5 -44t-142.5 -115.5t-89 -161.5t-31 -184q0 -90 25.5 -179.5t72 -166t113 -135t148.5 -87.5v-184h-609z" />
<glyph unicode="&#x3c0;" horiz-adv-x="1437" d="M111 870v199h1134v-199h-213v-561q0 -59 31 -93t86 -34q23 0 53.5 8.5t57.5 18.5l32 -176q-51 -23 -117.5 -36t-119.5 -13q-113 0 -177.5 63.5t-64.5 179.5v643h-324v-870h-219v870h-159z" />
<glyph unicode="&#x2000;" horiz-adv-x="939" />
<glyph unicode="&#x2001;" horiz-adv-x="1878" />
<glyph unicode="&#x2002;" horiz-adv-x="1159" />
<glyph unicode="&#x2003;" horiz-adv-x="1800" />
<glyph unicode="&#x2004;" horiz-adv-x="626" />
<glyph unicode="&#x2005;" horiz-adv-x="469" />
<glyph unicode="&#x2006;" horiz-adv-x="313" />
<glyph unicode="&#x2007;" horiz-adv-x="313" />
<glyph unicode="&#x2008;" horiz-adv-x="234" />
<glyph unicode="&#x2009;" horiz-adv-x="375" />
<glyph unicode="&#x200a;" horiz-adv-x="104" />
<glyph unicode="&#x2010;" horiz-adv-x="827" d="M88 459l43 203h584l-43 -203h-584z" />
<glyph unicode="&#x2011;" horiz-adv-x="827" d="M88 459l43 203h584l-43 -203h-584z" />
<glyph unicode="&#x2012;" horiz-adv-x="827" d="M88 459l43 203h584l-43 -203h-584z" />
<glyph unicode="&#x2013;" horiz-adv-x="1169" d="M88 459l43 203h926l-45 -203h-924z" />
<glyph unicode="&#x2014;" horiz-adv-x="1802" d="M88 459l43 203h1559l-43 -203h-1559z" />
<glyph unicode="&#x2018;" horiz-adv-x="460" d="M199 999l55 256l117 240h127l-92 -242h69l-53 -254h-223z" />
<glyph unicode="&#x2019;" horiz-adv-x="444" d="M227 1026l92 242h-69l53 254h223l-55 -256l-117 -240h-127z" />
<glyph unicode="&#x201a;" horiz-adv-x="473" d="M-29 -252l97 252h-72l55 264h223l-57 -266l-117 -250h-129z" />
<glyph unicode="&#x201c;" horiz-adv-x="772" d="M199 999l55 256l117 240h127l-92 -242h69l-53 -254h-223zM512 999l53 256l117 240h129l-92 -242h67l-53 -254h-221z" />
<glyph unicode="&#x201d;" horiz-adv-x="755" d="M225 1026l92 242h-67l53 254h221l-53 -256l-117 -240h-129zM539 1026l92 242h-70l53 254h224l-56 -256l-116 -240h-127z" />
<glyph unicode="&#x201e;" horiz-adv-x="794" d="M-29 -252l97 252h-72l55 264h223l-57 -266l-117 -250h-129zM291 -252l96 252h-70l56 264h223l-57 -266l-117 -250h-131z" />
<glyph unicode="&#x2020;" horiz-adv-x="878" d="M41 453l43 204h256l199 930h215l-199 -930h256l-43 -204h-256l-152 -719h-215l152 719h-256z" />
<glyph unicode="&#x2021;" horiz-adv-x="888" d="M4 252l43 203h256l49 229h-256l43 203h256l150 700h215l-150 -700h254l-43 -203h-254l-49 -229h256l-43 -203h-256l-108 -518h-215l108 518h-256z" />
<glyph unicode="&#x2022;" horiz-adv-x="714" d="M174 678q0 47 21.5 90t55.5 76t78 52t89 19q72 0 114.5 -47.5t42.5 -119.5q0 -47 -20 -90.5t-55 -76t-79 -52t-89 -19.5q-70 0 -114 48t-44 120z" />
<glyph unicode="&#x2026;" horiz-adv-x="1107" d="M-6 0l55 262h189l-58 -262h-186zM332 0l55 262h186l-55 -262h-186zM668 0l55 262h188l-57 -262h-186z" />
<glyph unicode="&#x202f;" horiz-adv-x="375" />
<glyph unicode="&#x2030;" horiz-adv-x="2228" d="M66 82l692 682l659 702l86 -92l-678 -674l-675 -712zM197 1116q0 74 32.5 138.5t86 113.5t122 78t140.5 29q119 0 188.5 -73t69.5 -179q0 -72 -33 -136.5t-86 -113.5t-120.5 -78t-139.5 -29q-59 0 -107.5 19.5t-82.5 53.5t-52 79t-18 98zM358 1130q0 -61 34 -104t87 -43 q35 0 70 18.5t62.5 50t45 72.5t17.5 86q0 61 -34 104.5t-87 43.5q-35 0 -69.5 -19.5t-62.5 -51.5t-45.5 -72.5t-17.5 -84.5zM733 231q0 72 33 136.5t86 113.5t121.5 78t140.5 29q57 0 105.5 -19.5t81 -53.5t51 -80t18.5 -97q0 -74 -31.5 -138.5t-85 -113.5t-122 -77.5 t-140.5 -28.5q-119 0 -188.5 72.5t-69.5 178.5zM893 244q0 -61 34 -104.5t87 -43.5q37 0 71.5 19.5t62.5 51.5t45 73t17 84q0 61 -33.5 104t-86.5 43q-37 0 -72 -18.5t-62.5 -50t-45 -72.5t-17.5 -86zM1458 231q0 72 33 136.5t87 113.5t122.5 78t140.5 29q57 0 105.5 -19.5 t81 -53.5t51 -80t18.5 -97q0 -74 -32.5 -138.5t-86 -113.5t-121 -77.5t-139.5 -28.5q-119 0 -189.5 72.5t-70.5 178.5zM1620 244q0 -61 34 -104.5t87 -43.5q37 0 71.5 19.5t62.5 51.5t45 73t17 84q0 61 -33.5 104t-86.5 43q-37 0 -72 -18.5t-62.5 -50t-45 -72.5t-17.5 -86z " />
<glyph unicode="&#x2039;" horiz-adv-x="702" d="M47 469l25 113l585 379l-41 -187l-376 -244l274 -235l-39 -184z" />
<glyph unicode="&#x203a;" horiz-adv-x="702" d="M10 111l41 184l375 235l-272 244l36 187l426 -379l-24 -113z" />
<glyph unicode="&#x2044;" horiz-adv-x="376" d="M-508 82l692 682l662 702l86 -92l-680 -674l-674 -712z" />
<glyph unicode="&#x205f;" horiz-adv-x="469" />
<glyph unicode="&#x20a1;" horiz-adv-x="1110" d="M43 430q0 106 36 207.5t99.5 185.5t151.5 146.5t194 93.5l54 258h108l-51 -236q16 2 33.5 3.5t33.5 1.5q12 0 24.5 -1.5t25.5 -1.5l51 234h108l-55 -254q94 -29 153.5 -92.5t84.5 -151.5l-234 -69q-23 68 -75 105.5t-126 37.5t-142 -34t-122.5 -94t-86.5 -140t-32 -172 q0 -61 16.5 -113.5t47.5 -90.5t73 -59.5t93 -21.5q39 0 79 11.5t75.5 32t64.5 47t47 56.5l207 -65q-57 -90 -148.5 -156.5t-201.5 -97.5l-51 -246h-109l49 228q-12 0 -24.5 -1t-24.5 -1q-18 0 -34.5 1t-33.5 3l-49 -230h-106l53 256q-125 49 -190.5 164t-65.5 256z" />
<glyph unicode="&#x20a3;" horiz-adv-x="1202" d="M-16 238l34 161h164l226 1055h923l-45 -203h-692l-90 -434h577l-41 -190h-577l-49 -228h223l-35 -161h-223l-51 -238h-230l49 238h-163z" />
<glyph unicode="&#x20a4;" horiz-adv-x="1017" d="M10 145q115 92 183.5 170t101.5 156h-227l28 137h228q0 35 -2.5 60.5t-6.5 48.5h-196l28 137h136q-12 47 -20.5 93t-8.5 93q0 88 40 165t105.5 134.5t151.5 91t176 33.5q115 0 205 -57t137 -158l-149 -139q-31 78 -96.5 124t-139.5 46q-45 0 -87 -18.5t-73.5 -51 t-50 -76.5t-18.5 -94q0 -45 10 -91t24 -95h357l-29 -137h-301q6 -37 6 -74v-18.5t-2 -16.5h273l-29 -137h-272q-25 -66 -81.5 -134.5t-156.5 -160.5q43 10 80 16.5t72 6.5q74 0 133 -18.5t127 -18.5q35 0 72.5 9t88.5 26l17 -168q-53 -29 -114.5 -44.5t-117.5 -15.5 q-43 0 -84 8.5t-81.5 19.5t-84 19.5t-88.5 8.5q-51 0 -117.5 -11.5t-127.5 -29.5z" />
<glyph unicode="&#x20a6;" horiz-adv-x="1679" d="M51 489l29 136h172l35 170h-170l28 137h172l111 522h180l273 -522h389l110 520h232l-111 -520h166l-29 -137h-168l-34 -170h166l-29 -136h-166l-104 -489h-191l-262 489h-397l-105 -489h-229l104 489h-172zM481 625h297l-90 170h-170zM547 932h69l-49 92zM952 795 l90 -170h160l37 170h-287zM1112 489l45 -83l17 83h-62z" />
<glyph unicode="&#x20a9;" horiz-adv-x="2228" d="M61 535l29 137h322l-29 159h-258l29 136h206l-86 487h250l70 -487h385l-72 481h215l62 -494l272 494h215l-278 -481h387l276 487h252l-295 -487h213l-28 -136h-267l-96 -159h328l-29 -137h-381l-321 -535h-197l-115 651l-391 -651h-197l-96 535h-375zM612 831l23 -159 h295l76 129l-7 30h-387zM655 535l39 -269l156 269h-195zM1298 801l21 -129h295l90 159h-389zM1341 535l43 -269l152 269h-195z" />
<glyph unicode="&#x20ac;" horiz-adv-x="1554" d="M47 514l82 127h123q2 29 6 57.5t10 57.5h-135l80 127h92q45 115 121 220t178.5 185t226 127t263.5 47q190 0 307 -88t153 -229l-204 -121q-14 66 -46 111t-74 71.5t-90 37.5t-98 11q-86 0 -162.5 -29.5t-141 -80.5t-114 -119t-81.5 -143h555l-80 -127h-516 q-16 -61 -17 -115h496l-80 -127h-407q12 -68 39.5 -126t69.5 -101t96.5 -67.5t121.5 -24.5q49 0 105.5 13t112 43t105.5 75t91 108l168 -108q-49 -82 -123 -144.5t-160 -105.5t-177 -65.5t-173 -22.5q-113 0 -202 43t-154.5 114.5t-105.5 168t-52 200.5h-209z" />
<glyph unicode="&#x20b9;" horiz-adv-x="1017" d="M139 700h191q51 0 99 29t85 77t59.5 108.5t22.5 125.5h-426l29 138h364q-20 37 -52 59.5t-73 22.5h-223l43 194h858l-29 -137h-331q23 -31 38 -67t25 -72h238l-29 -138h-194q-4 -80 -34 -157.5t-81 -143t-117.5 -113.5t-144.5 -73l221 -553h-262z" />
<glyph unicode="&#x2122;" horiz-adv-x="1566" d="M266 1309l33 149h518l-33 -149h-184l-96 -457h-150l97 457h-185zM776 852l129 602h217l56 -344l198 344h219l-129 -602h-149l88 405l-205 -319h-119l-69 319l-86 -405h-150z" />
<glyph unicode="&#x2202;" horiz-adv-x="1157" d="M55 403q0 98 42 187.5t113 157t163 106.5t194 39q106 0 184 -44t111 -122q4 31 6 65.5t2 73.5q0 72 -12 144.5t-43 131t-85 95.5t-138 37q-76 0 -150.5 -26.5t-113.5 -69.5l-125 133q72 74 179 113.5t228 39.5q227 0 347 -157.5t120 -499.5q0 -201 -41 -355.5 t-114.5 -259t-177 -158.5t-228.5 -54q-100 0 -185 32.5t-146.5 90t-95.5 134t-34 166.5zM270 418q0 -53 19.5 -99.5t53.5 -81t81 -54t100 -19.5q59 0 114.5 24.5t97.5 65.5t66.5 96.5t24.5 114.5q0 53 -19.5 99t-54 80t-81.5 53.5t-101 19.5q-59 0 -114.5 -23.5t-96.5 -64.5 t-65.5 -95.5t-24.5 -115.5z" />
<glyph unicode="&#x2206;" horiz-adv-x="1345" d="M-2 0v174l530 1280h189l526 -1280v-174h-1245zM242 203h762l-381 989z" />
<glyph unicode="&#x220f;" horiz-adv-x="1581" d="M152 1255v199h1353v-199h-164v-1439h-219v1439h-587v-1439h-220v1439h-163z" />
<glyph unicode="&#x2211;" horiz-adv-x="1267" d="M147 0v156l447 573l-432 580v145h958v-178h-671v-8l380 -512l-419 -549v-8h735v-199h-998z" />
<glyph unicode="&#x221a;" horiz-adv-x="929" d="M33 600v160h362l133 -580l230 1438h207l-312 -1618h-258l-174 600h-188z" />
<glyph unicode="&#x221e;" horiz-adv-x="1441" d="M109 721q0 74 25.5 138.5t70.5 113.5t106 76.5t133 27.5q59 0 104.5 -15t80.5 -40t61.5 -58.5t48.5 -70.5q23 37 49.5 70.5t61.5 58.5t80 40t106 15q76 0 137.5 -28.5t105.5 -76.5t67.5 -113.5t23.5 -139.5t-25.5 -138.5t-70.5 -113.5t-106.5 -77t-133.5 -28 q-57 0 -101 13.5t-79 37t-61.5 53.5t-49.5 62q-23 -33 -48 -62.5t-61 -53t-82 -37t-108 -13.5q-63 0 -123.5 29t-107.5 77t-75.5 113.5t-28.5 139.5zM283 721q0 -49 15 -84t38.5 -57.5t54.5 -32.5t62 -10q41 0 72.5 14t57 38.5t47 57.5t40.5 70q-39 76 -86 130t-131 54 q-31 0 -62 -10t-54.5 -31.5t-38.5 -56.5t-15 -82zM815 709q18 -35 37.5 -67t44.5 -55.5t56.5 -36.5t72.5 -13q31 0 61.5 10t54 32.5t39 57.5t15.5 84q0 47 -15.5 82t-39 56.5t-54 31.5t-61.5 10q-43 0 -74.5 -15.5t-56.5 -42t-44.5 -61t-35.5 -73.5z" />
<glyph unicode="&#x222b;" horiz-adv-x="684" d="M29 -293l45 160q57 -27 104 -27q51 0 81 32t30 85q0 2 -1 30.5t-3 59.5l-70 1272q-4 57 -7 106.5t-3 59.5q0 90 61.5 142t175.5 52q55 0 122 -13t120 -36l-45 -160q-59 27 -109 27q-51 0 -80.5 -21.5t-29.5 -64.5q0 -35 6 -133l70 -1266q4 -47 5 -86t1 -45 q0 -106 -61.5 -164.5t-174.5 -58.5q-53 0 -119.5 13.5t-117.5 35.5z" />
<glyph unicode="&#x2248;" horiz-adv-x="917" d="M113 426q27 45 72.5 80t117.5 35q45 0 79 -14.5t63.5 -32t59.5 -31.5t66 -14q43 0 69 14t40 33l100 -90q-29 -41 -78 -74t-124 -33q-47 0 -82 13.5t-65 30.5t-58.5 30.5t-61.5 13.5q-41 0 -63.5 -15.5t-32.5 -35.5zM113 719q27 45 72.5 80t117.5 35q45 0 79 -14.5 t63.5 -32t59.5 -32t66 -14.5q43 0 69 15.5t40 34.5l100 -82q-29 -47 -78 -82t-124 -35q-47 0 -82 13t-65 30.5t-58.5 31t-61.5 13.5q-41 0 -63.5 -15.5t-32.5 -35.5z" />
<glyph unicode="&#x2260;" horiz-adv-x="983" d="M162 336v149h217l84 160h-301v150h379l133 252l90 -50l-107 -202h138v-150h-217l-84 -160h301v-149h-379l-131 -250l-90 49l104 201h-137z" />
<glyph unicode="&#x2264;" horiz-adv-x="958" d="M102 82v182h703v-182h-703zM102 705v139l697 336v-215l-412 -185l412 -178v-221z" />
<glyph unicode="&#x2265;" horiz-adv-x="1007" d="M152 82v182h700v-182h-700zM158 381v221l411 178l-411 185v215l694 -336v-139z" />
<glyph unicode="&#x25ca;" horiz-adv-x="1112" d="M80 750l381 745h246l380 -745l-380 -750h-246zM299 768l301 -608l287 565l-305 604z" />
<glyph unicode="&#x25fc;" horiz-adv-x="1136" d="M0 0v1137h1137v-1137h-1137z" />
<glyph unicode="&#xfb06;" horiz-adv-x="1658" d="M-49 127l119 154q156 -137 331 -138q45 0 88 10.5t76 32t52.5 51t19.5 70.5q0 35 -15.5 57.5t-44 38t-69.5 26.5t-90 24q-70 16 -127.5 33.5t-97 44t-62 67.5t-22.5 107q0 90 42 161.5t107.5 120.5t148 76t162.5 27q53 0 121 -14.5t115 -49.5q-8 31 -13.5 65.5t-5.5 71.5 q0 68 21.5 131.5t72 112.5t131.5 80t199 31q154 0 210.5 -53.5t56.5 -151.5q0 -47 -10.5 -108.5t-24.5 -133.5h219l-37 -174h-219l-127 -598q-2 -10 -3 -16.5t-1 -14.5q0 -41 23.5 -59.5t62.5 -18.5q43 0 87 16.5t69 26.5l6 -178q-25 -10 -57.5 -22.5t-69.5 -23.5t-78 -18 t-80 -7q-88 0 -147.5 41t-59.5 133q0 23 4 48t10 54l136 637h-136l37 174h136q31 147 30 219q0 68 -26.5 94.5t-92.5 26.5q-63 0 -109 -20.5t-76 -54t-44 -81t-14 -98.5q0 -35 5 -67.5t13 -59t15.5 -46t13.5 -28.5l-121 -139q-63 66 -131 89.5t-131 23.5q-43 0 -85 -10.5 t-74 -31t-51.5 -52t-19.5 -76.5q0 -39 16.5 -62.5t47.5 -39t76 -26.5t102 -24q70 -14 124 -31.5t92 -45t57.5 -68.5t19.5 -103q0 -90 -40 -160.5t-106.5 -119.5t-153.5 -74.5t-179 -25.5q-63 0 -125 11t-117 31.5t-102 47t-80 57.5z" />
<glyph horiz-adv-x="1167" d="M-102 0l718 1137h168l234 -1137h-213l-60 295h-446l-182 -295h-219zM381 471h354l-88 416z" />
<glyph horiz-adv-x="1165" d="M18 0l242 1137h619q53 0 93 -20.5t66.5 -53.5t40 -76t13.5 -88q0 -49 -16.5 -97t-46.5 -90t-73 -75t-96 -53q78 -25 122 -85.5t44 -146.5q0 -84 -37 -149.5t-97.5 -110.5t-140 -68.5t-165.5 -23.5h-568zM260 174h361q39 0 75.5 15.5t64 41t45 59.5t17.5 70 q0 53 -32.5 93.5t-88.5 40.5h-376zM360 655h332q37 0 71 13.5t59.5 38t42 58.5t16.5 75q0 53 -32 85.5t-85 32.5h-338z" />
<glyph horiz-adv-x="1167" d="M55 479q0 117 52.5 234.5t146.5 213t223 156t283 60.5q160 0 261 -68.5t132 -179.5l-178 -109q-12 49 -40 83t-63.5 53.5t-76.5 29t-80 9.5q-102 0 -185.5 -43.5t-142.5 -111t-91 -150.5t-32 -162q0 -66 19.5 -123.5t56.5 -102.5t90 -70.5t121 -25.5q84 0 179 42t161 138 l145 -98q-41 -63 -103.5 -112.5t-134 -83t-147 -51t-145.5 -17.5q-109 0 -192 41t-141 109.5t-88 156.5t-30 182z" />
<glyph horiz-adv-x="1247" d="M18 0l242 1137h428q123 0 213 -35t150.5 -95.5t89 -143.5t28.5 -177q0 -150 -55 -275.5t-151.5 -217t-228.5 -142.5t-288 -51h-428zM260 180h225q109 0 197 39t149.5 103.5t94 150.5t32.5 182q0 135 -77.5 218t-231.5 83h-223z" />
<glyph horiz-adv-x="1050" d="M18 0l242 1137h809l-39 -181h-604l-64 -294h525l-35 -166h-524l-68 -316h621l-39 -180h-824z" />
<glyph horiz-adv-x="1013" d="M18 0l242 1137h799l-39 -181h-594l-68 -311h500l-37 -168h-497l-103 -477h-203z" />
<glyph horiz-adv-x="1425" d="M86 598q0 160 66.5 315.5t180 278.5t266.5 197.5t325 74.5q176 0 293.5 -83t168.5 -224l-212 -145q-12 37 -35 80t-60 79.5t-89 61t-122 24.5q-117 0 -217 -58t-174 -151.5t-116 -209t-42 -230.5q0 -80 19.5 -153.5t59.5 -131t100.5 -92t142.5 -34.5q76 0 148.5 29.5 t134 77.5t108.5 110.5t76 130.5h-330l43 205h582q-2 -8 -6 -24.5t-8.5 -35t-8.5 -35t-6 -24.5q-35 -129 -106.5 -246t-172 -204t-222.5 -139t-257 -52q-127 0 -225 50t-165.5 134t-103.5 193.5t-36 230.5z" />
<glyph horiz-adv-x="1220" d="M57 477q0 131 57.5 252t152.5 213t221 147.5t262 55.5q166 0 264 -68.5t133 -179.5l-178 -115q-27 90 -97.5 135.5t-166.5 45.5q-90 0 -171 -40t-140.5 -106.5t-94.5 -151.5t-35 -176q0 -68 20.5 -125t57.5 -99t90 -66.5t119 -24.5q168 0 344 160l20 96h-243l30 150h416 l-123 -580h-170l27 131q-172 -139 -356 -139q-100 0 -181.5 40t-138.5 106.5t-88 154.5t-31 184z" />
<glyph horiz-adv-x="1286" d="M18 0l242 1137h203l-98 -465h583l96 465h205l-241 -1137h-203l102 492h-581l-105 -492h-203z" />
<glyph horiz-adv-x="501" d="M18 0l242 1137h203l-242 -1137h-203z" />
<glyph horiz-adv-x="864" d="M-80 51l84 168q23 -18 75 -36.5t126 -18.5q76 0 126 24.5t84 73.5t56.5 124t42.5 173l123 578h205l-125 -578q-29 -129 -64 -235.5t-95 -182t-154.5 -116.5t-237.5 -41q-154 0 -246 67z" />
<glyph horiz-adv-x="1148" d="M18 0l242 1137h203l-121 -572l672 572h215l-572 -504l359 -633h-217l-291 516l-213 -172l-74 -344h-203z" />
<glyph horiz-adv-x="954" d="M18 0l242 1137h203l-203 -957h580l-37 -180h-785z" />
<glyph horiz-adv-x="1497" d="M18 0l242 1137h219l240 -666l522 666h217l-241 -1137h-203l166 778l-465 -583h-111l-217 583l-166 -778h-203z" />
<glyph horiz-adv-x="1323" d="M18 0l242 1137h158l500 -775l163 775h205l-242 -1137h-167l-494 758l-162 -758h-203z" />
<glyph horiz-adv-x="1284" d="M53 471q0 129 58.5 250t154.5 214t223 150.5t267 57.5q111 0 194.5 -40t141 -107.5t87 -154.5t29.5 -179q0 -127 -57 -248t-153.5 -215.5t-223.5 -150.5t-266 -56q-109 0 -194 40t-143 106.5t-88 152.5t-30 180zM262 492q0 -63 18.5 -121t54.5 -102t90 -69.5t126 -25.5 q98 0 180 43t141.5 110.5t93 150.5t33.5 165q0 63 -18 120.5t-54 101.5t-89.5 70t-122.5 26q-98 0 -181 -42t-143.5 -110t-94.5 -152t-34 -165z" />
<glyph horiz-adv-x="1087" d="M18 0l242 1137h504q70 0 126 -27t95 -71t59.5 -101t20.5 -117q0 -80 -36 -157.5t-97.5 -139t-143 -99.5t-176.5 -38h-309l-82 -387h-203zM342 565h297q45 0 84 18.5t68.5 50.5t47 75t17.5 92q0 72 -41 113.5t-102 41.5h-287z" />
<glyph horiz-adv-x="1284" d="M53 471q0 129 58.5 250t154.5 215t223 151.5t267 57.5q111 0 194.5 -41t141 -108.5t87 -154.5t29.5 -179q0 -137 -65.5 -265.5t-175.5 -224.5l120 -172h-194l-57 80q-74 -41 -157 -64.5t-171 -23.5q-109 0 -194 40t-143 106.5t-88 152.5t-30 180zM262 492 q0 -63 18.5 -121t54.5 -102t90 -69.5t126 -25.5q96 0 186 45l-133 191h197l63 -93q63 70 99 156t36 172q0 63 -18 120.5t-54 101.5t-89.5 70t-122.5 26q-98 0 -181 -43t-143.5 -111t-94.5 -152t-34 -165z" />
<glyph horiz-adv-x="1157" d="M18 0l242 1137h522q72 0 128.5 -27t94 -71t58 -101t20.5 -117q0 -63 -22.5 -124.5t-63.5 -114t-96 -92t-121 -62.5l193 -428h-234l-174 387h-262l-82 -387h-203zM342 565h315q43 0 82 19.5t70 51.5t48 74t17 87q0 70 -39.5 114.5t-103.5 44.5h-305z" />
<glyph horiz-adv-x="1050" d="M-41 137l131 176q18 -25 52 -50t82 -45.5t106.5 -34t126.5 -13.5q113 0 175 40t62 114q0 33 -19.5 56t-55 40.5t-86 33t-113.5 31.5q-139 37 -210 93.5t-71 160.5q0 96 41 171t110.5 127.5t161 80t193.5 27.5q121 0 214 -37t157 -92l-123 -166q-29 39 -107.5 77 t-183.5 38q-125 0 -183.5 -46.5t-58.5 -117.5q0 -59 61.5 -88t182.5 -60q72 -18 131.5 -40.5t101.5 -53.5t64.5 -74t22.5 -104q0 -104 -42 -178t-113 -122t-163 -70.5t-192 -22.5q-131 0 -250 39t-205 110z" />
<glyph horiz-adv-x="1067" d="M111 956l39 181h987l-37 -181h-391l-203 -956h-205l205 956h-395z" />
<glyph horiz-adv-x="1282" d="M98 387q0 41 5.5 84t15.5 88l123 578h202l-120 -578q-8 -35 -12.5 -67.5t-4.5 -65.5q0 -53 12.5 -99t41 -80t74.5 -53.5t112 -19.5q88 0 154.5 33t114.5 86t77 122.5t45 143.5l121 578h205l-123 -578q-25 -117 -75 -220t-129 -180t-185.5 -122t-241.5 -45 q-113 0 -190.5 30.5t-127 84t-72 125t-22.5 155.5z" />
<glyph horiz-adv-x="1161" d="M123 1137h215l168 -850l524 850h215l-715 -1137h-174z" />
<glyph horiz-adv-x="2131" d="M193 1454h260l79 -1110l572 1110h252l106 -1110l553 1110h260l-743 -1454h-242l-139 1077l-592 -1077h-240z" />
<glyph horiz-adv-x="1794" d="M121 1137h219l184 -891l238 372l-94 512h188l62 -378l225 378h188l-311 -512l82 -372l559 891h223l-735 -1137h-170l-115 489l-321 -489h-174z" />
<glyph horiz-adv-x="1116" d="M-102 0l540 561l-313 576h223l230 -432l411 432h223l-557 -576l303 -561h-223l-219 416l-395 -416h-223z" />
<glyph horiz-adv-x="1103" d="M113 1137h221l201 -557l440 557h223l-600 -736l-84 -401h-205l88 403z" />
<glyph horiz-adv-x="1093" d="M-61 0l34 156l877 800h-688l37 181h927l-32 -156l-861 -801h693l-39 -180h-948z" />
<glyph horiz-adv-x="1243" d="M39 420q0 133 50 255t133 214t189.5 146.5t221.5 54.5q117 0 196.5 -61.5t108.5 -160.5l43 191h225l-225 -1059h-225l41 190q-72 -98 -168 -154t-211 -56q-90 0 -161 34.5t-119 94t-73.5 139.5t-25.5 172zM276 457q0 -59 16.5 -111.5t47.5 -90.5t75 -60.5t99 -22.5 q96 0 179 59.5t143 151.5l61 279q-16 104 -79.5 169.5t-158.5 65.5q-76 0 -144.5 -39t-121.5 -102.5t-85 -141t-32 -157.5z" />
<glyph horiz-adv-x="1095" d="M-16 256q0 98 45 172t116.5 124t163.5 75.5t187 25.5q88 0 152.5 -15t99.5 -34l16 74q8 35 8 72q0 86 -50 133t-149 47q-82 0 -165.5 -32t-182.5 -91l-39 143q106 63 216 101.5t227 38.5q184 0 276 -84t92 -232q0 -59 -12 -121l-139 -653h-217l30 156q-80 -90 -182 -133 t-211 -43q-63 0 -115.5 21.5t-89 58t-57 87t-20.5 109.5zM205 301q0 -72 45 -114t115 -42q66 0 141.5 28t128.5 85q20 20 35.5 39.5t19.5 38.5l29 141q-49 23 -105.5 35t-109.5 12q-51 0 -104.5 -13t-96.5 -41t-70.5 -70t-27.5 -99z" />
<glyph horiz-adv-x="1812" d="M39 430q0 123 48 240.5t135 211t209 151t267 57.5q96 0 154.5 -23t112.5 -63q-10 31 -17.5 71.5t-7.5 81.5q0 78 27.5 144.5t80 114.5t128 75t174.5 27q84 0 138 -16.5t86 -45.5t44 -68.5t12 -87.5q0 -51 -10 -109t-25 -120h220l-37 -174h-219l-125 -598q-4 -10 -4 -31 q0 -41 24.5 -59.5t58.5 -18.5q47 0 90.5 16.5t65.5 26.5l8 -178q-47 -20 -124.5 -45.5t-161.5 -25.5q-88 0 -147.5 42t-59.5 134q0 35 8 67l143 670h-137l39 174h133q14 59 23.5 111.5t9.5 93.5q0 66 -31 100.5t-108 34.5q-61 0 -103.5 -23.5t-70 -62.5t-40 -89t-12.5 -101 q0 -43 6.5 -89.5t14.5 -88.5t16 -77.5t12 -56.5l-231 -69q-25 72 -78 107.5t-129 35.5q-78 0 -145.5 -38t-119.5 -100.5t-82 -141t-30 -160.5q0 -59 16.5 -111.5t46.5 -91.5t73 -60.5t96 -21.5q33 0 70.5 10.5t74.5 28.5t69 46t50 62l205 -65q-39 -63 -95.5 -114.5 t-123 -86.5t-141 -54t-150.5 -19q-104 0 -183 36.5t-133.5 98t-81 143.5t-26.5 172z" />
<glyph horiz-adv-x="1241" d="M39 422q0 131 48 252t130 213t188.5 147.5t221.5 55.5q119 0 196.5 -62.5t112.5 -159.5l133 627h225l-317 -1495h-223l37 178q-72 -92 -168.5 -145t-202.5 -53q-90 0 -161 34.5t-120 94t-74.5 140.5t-25.5 173zM276 459q0 -61 17.5 -113.5t48.5 -90.5t75 -60.5t99 -22.5 q43 0 90 16.5t91 45t81 67.5t58 84l57 281q-6 49 -27.5 92t-53.5 73.5t-73 48t-84 17.5q-76 0 -144.5 -39t-120.5 -101.5t-83 -140t-31 -157.5z" />
<glyph horiz-adv-x="1185" d="M45 354q0 82 29.5 149.5t77 121t102.5 92.5t108 61q-57 31 -95 93.5t-38 140.5q0 104 52.5 186t132.5 139.5t175 87t181 29.5q70 0 137.5 -21.5t121.5 -62.5t87 -102.5t33 -141.5q0 -61 -22.5 -114.5t-59.5 -98.5t-84 -79.5t-96 -55.5q70 -37 119 -113t49 -178 q0 -111 -51.5 -204t-135.5 -159.5t-191.5 -103t-221.5 -36.5q-90 0 -166 27.5t-130.5 76.5t-84 117.5t-29.5 148.5zM281 391q0 -47 18 -85t49 -64.5t71 -41t83 -14.5q57 0 114.5 21.5t104.5 60.5t76.5 92t29.5 119q0 49 -18 87t-49 63.5t-72 40t-84 14.5q-57 0 -115.5 -21.5 t-104.5 -60.5t-74.5 -93t-28.5 -118zM457 1020q0 -41 16 -70.5t42 -51t59.5 -32t68.5 -10.5q43 0 91 15.5t88 45t66.5 73.5t26.5 102q0 76 -55 118.5t-133 42.5q-49 0 -98 -16t-87 -47t-61.5 -74t-23.5 -96z" />
<glyph horiz-adv-x="1112" d="M-4 244l162 129q35 -88 108.5 -140.5t167.5 -52.5q68 0 128.5 25.5t106.5 72t73.5 109t27.5 133.5q0 98 -54 158.5t-147 60.5q-72 0 -141.5 -34.5t-122.5 -98.5h-199q12 29 40 97.5t63 157.5t74 187.5t72.5 183.5t57 145.5t31.5 76.5h678l-45 -207h-512l-151 -395 q41 39 98 60.5t129 21.5q82 0 150.5 -27.5t115.5 -77t74 -119t27 -151.5q0 -125 -50.5 -231.5t-135.5 -183t-196.5 -120.5t-234.5 -44q-150 0 -254 70.5t-141 193.5z" />
<glyph horiz-adv-x="1144" d="M0 352l43 201l870 901h154l-190 -899h172l-43 -203h-172l-74 -352h-225l73 352h-608zM272 555h404l119 557z" />
<glyph horiz-adv-x="489" d="M-92 -436l317 1495h226l-318 -1495h-225zM266 1247l51 236h224l-49 -236h-226z" />
<glyph horiz-adv-x="505" d="M8 0l318 1495h225l-318 -1495h-225z" />
<glyph horiz-adv-x="1212" d="M63 225l162 140q27 -86 93.5 -136.5t158.5 -50.5q143 0 256 129t166 365q-59 -92 -155.5 -145.5t-202.5 -53.5q-88 0 -160 31t-123 84t-78.5 126.5t-27.5 157.5q0 121 52 228.5t138 188.5t197.5 128t232.5 47q186 0 289.5 -123.5t103.5 -347.5q0 -205 -53 -388 t-150.5 -322.5t-231.5 -221t-296 -81.5q-133 0 -228 64.5t-143 180.5zM373 907q0 -106 62.5 -179t164.5 -73q66 0 130.5 30t114.5 79t80.5 114.5t30.5 139.5q0 53 -16 99t-46 81t-72 55.5t-93 20.5q-66 0 -129 -31t-114.5 -81t-82 -116.5t-30.5 -138.5z" />
<glyph horiz-adv-x="917" d="M2 0l43 203h266l221 1036q-20 -25 -63 -54.5t-93 -57t-102.5 -46t-91.5 -18.5l45 209q51 0 112.5 29.5t115 65.5t89.5 66.5t38 34.5h229l-268 -1265h245l-43 -203h-743z" />
<glyph horiz-adv-x="1239" d="M39 414q0 137 51 260t137 215t195.5 146.5t226.5 54.5q119 0 200 -59.5t116 -153.5l41 194h198l-321 -1507h-226l136 637q-86 -111 -188.5 -166t-217.5 -55q-84 0 -148.5 33.5t-108.5 93t-67.5 138.5t-23.5 169zM274 453q0 -59 15.5 -109.5t46.5 -89.5t74 -60.5t98 -21.5 q94 0 176 58.5t147 146.5l60 282q-2 49 -20.5 92.5t-49 75t-72.5 51t-87 19.5q-76 0 -146 -38t-124 -101.5t-86 -143t-32 -161.5z" />
<glyph horiz-adv-x="1083" d="M2 0l854 1247h-659l43 207h1015l-999 -1454h-254z" />
<glyph horiz-adv-x="1210" d="M92 451q0 205 53.5 389t150.5 323.5t231.5 220t297.5 80.5q131 0 226.5 -63.5t142.5 -179.5l-162 -140q-27 86 -93.5 136.5t-160.5 50.5q-141 0 -253.5 -130t-166.5 -366q61 92 156.5 145.5t202.5 53.5q88 0 158.5 -31t122 -84t79 -126t27.5 -159q0 -121 -51.5 -227 t-137.5 -188t-197.5 -129t-232.5 -47q-188 0 -290.5 124.5t-102.5 346.5zM303 428q0 -53 16.5 -99t46 -81t71.5 -55.5t91 -20.5q66 0 129.5 29.5t114.5 81t82 117t31 139.5q0 106 -62.5 179t-165.5 73q-68 0 -131 -30t-112 -80t-80 -115.5t-31 -137.5z" />
<glyph horiz-adv-x="716" d="M76 0l184 866h-151l43 205h151l74 352h231l-76 -352h240l-43 -205h-240l-184 -866h-229z" />
<glyph horiz-adv-x="1146" d="M12 285l154 143q0 -43 15.5 -85t48 -76t84 -55.5t124.5 -21.5q68 0 128.5 18.5t107.5 52.5t74.5 81t27.5 102q0 104 -95 155.5t-271 51.5h-66l41 191h66q92 0 169.5 16t135 48t89.5 79t32 109q0 90 -58.5 135t-144.5 45q-55 0 -107.5 -15.5t-97.5 -42t-80 -59.5t-57 -65 l-113 161q43 51 100.5 92t124 69t138 43.5t139.5 15.5q90 0 163.5 -26t126 -72t81 -108.5t28.5 -138.5q0 -133 -88 -233t-250 -137q109 -23 167.5 -106t58.5 -199q0 -113 -54.5 -201t-140.5 -147.5t-193.5 -91t-213.5 -31.5q-178 0 -280.5 80.5t-113.5 222.5z" />
<glyph horiz-adv-x="1179" d="M-41 0q31 143 74 247.5t102.5 183.5t140 137.5t189.5 107.5q80 37 160 70.5t144.5 77.5t105 105.5t40.5 155.5q0 78 -46 129.5t-140 51.5q-59 0 -116.5 -17.5t-107.5 -45t-92 -60.5t-73 -64l-111 150q27 27 81.5 67.5t128 79.5t165.5 68t197 29q94 0 163.5 -27t115.5 -73 t70 -109.5t24 -137.5q0 -119 -39 -202.5t-103.5 -146t-149.5 -109.5t-177 -90t-161 -84t-116 -85t-75.5 -94.5t-41.5 -111.5h676l-43 -203h-985z" />
<glyph horiz-adv-x="1677" d="M119 1071h233l80 -799l391 799h213l51 -799l418 799h234l-580 -1071h-248l-57 723l-369 -723h-239z" />
<glyph horiz-adv-x="1060" d="M37 -436q8 14 32.5 55t58.5 100.5t77 131t90 149.5l-186 1071h237l115 -872l457 872h215l-838 -1507h-258z" />
<glyph horiz-adv-x="1372" d="M96 567q0 100 28 206t78 204t120.5 185t155.5 151.5t182.5 102.5t203.5 38q121 0 207 -53t141.5 -138t81 -190.5t25.5 -210.5q0 -152 -60.5 -309.5t-165 -284.5t-244.5 -207.5t-298 -80.5q-121 0 -207 52t-141.5 137t-81 189.5t-25.5 208.5zM330 555q0 -72 14 -138.5 t47 -117.5t82 -82t121 -31q111 0 201 66.5t154.5 166t99 215.5t34.5 214q0 74 -15 145.5t-48 128t-82 91t-119 34.5q-113 0 -203 -70.5t-153.5 -175t-98 -225.5t-34.5 -221z" />
</font>
</defs>
</svg>
